<?xml version="1.0" standalone="no"?>
<!DOCTYPE svg PUBLIC "-//W3C//DTD SVG 1.1//EN" "http://www.w3.org/Graphics/SVG/1.1/DTD/svg11.dtd" >
<svg xmlns="http://www.w3.org/2000/svg">
<metadata>Generated by IcoMoon</metadata>
<defs>
<font id="ico-digisalad" horiz-adv-x="1024">
<font-face units-per-em="1024" ascent="960" descent="-64" />
<missing-glyph horiz-adv-x="1024" />
<glyph unicode="&#x20;" horiz-adv-x="512" d="" />
<glyph unicode="&#xe900;" glyph-name="account-filled" d="M0 960h1024v-1024h-1024v1024z" />
<glyph unicode="&#xe901;" glyph-name="alert-filled" d="M512 864c-82.278 0-162.706-24.398-231.117-70.109s-121.731-110.681-153.216-186.695c-31.486-76.013-39.724-159.657-23.673-240.352s55.671-154.82 113.85-213.001c58.179-58.18 132.303-97.801 213-113.852 80.695-16.051 164.339-7.812 240.354 23.676 76.011 31.484 140.983 84.804 186.692 153.216 45.713 68.412 70.11 148.838 70.11 231.117-0.107 110.298-43.968 216.047-121.958 294.039-77.995 77.992-183.744 121.855-294.042 121.961zM480 640c0 8.487 3.371 16.626 9.374 22.627 5.999 6.001 14.14 9.373 22.626 9.373s16.627-3.372 22.626-9.373c6.003-6.001 9.374-14.141 9.374-22.627v-224c0-8.486-3.371-16.627-9.374-22.626-5.999-6.003-14.14-9.374-22.626-9.374s-16.627 3.371-22.626 9.374c-6.003 5.999-9.374 14.14-9.374 22.626v224zM512 224c-9.493 0-18.773 2.816-26.667 8.090s-14.046 12.77-17.681 21.542c-3.631 8.768-4.582 18.419-2.731 27.733 1.852 9.31 6.426 17.865 13.137 24.576s15.266 11.285 24.576 13.137c9.314 1.852 18.965 0.9 27.733-2.731 8.772-3.635 16.269-9.788 21.542-17.681s8.090-17.173 8.090-26.667c0-12.732-5.056-24.939-14.059-33.941s-21.21-14.059-33.941-14.059z" />
<glyph unicode="&#xe902;" glyph-name="calendar-filled" d="M112 80c0-17.698 14.3-32 32-32h736c17.698 0 32 14.302 32 32v420.002h-800v-420.002zM880 776h-168v64c0 4.4-3.601 8-8 8h-56c-4.399 0-8-3.6-8-8v-64h-256v64c0 4.4-3.6 8-8 8h-56c-4.4 0-8-3.6-8-8v-64h-168c-17.7 0-32-14.3-32-32v-176h800v176c0 17.7-14.302 32-32 32z" />
<glyph unicode="&#xe903;" glyph-name="chat-filled" d="M510.332 848c-234.348 0-424.998-168.213-424.998-375.002 0-87.351 34.57-171.994 97.485-239.087 12.452-51.341-2.662-105.737-40.161-143.236-15.68-15.68-4.592-42.675 17.676-42.675 71.24 0 139.917 27.904 190.942 77.124 50.488-18.018 103.906-27.123 159.057-27.123 234.351 0 428.335 168.213 428.335 374.997 0 206.788-193.984 375.002-428.335 375.002zM313.667 397.999c-41.356 0-75 33.643-75 74.999s33.644 75.002 75 75.002c41.357 0 75-33.645 75-75.002s-33.644-74.999-75-74.999zM513.668 397.999c-41.357 0-75.004 33.643-75.004 74.999s33.647 75.002 75.004 75.002c41.357 0 74.999-33.645 74.999-75.002s-33.643-74.999-74.999-74.999zM713.668 397.999c-41.357 0-74.999 33.643-74.999 74.999s33.643 75.002 74.999 75.002c41.357 0 74.999-33.645 74.999-75.002s-33.643-74.999-74.999-74.999z" />
<glyph unicode="&#xe904;" glyph-name="cross-filled" d="M512 864c-82.278 0-162.706-24.398-231.117-70.109s-121.731-110.681-153.216-186.695c-31.486-76.013-39.724-159.657-23.673-240.352s55.671-154.82 113.85-213.001c58.179-58.18 132.303-97.801 213-113.852 80.695-16.051 164.339-7.812 240.354 23.676 76.011 31.484 140.983 84.804 186.692 153.216 45.713 68.412 70.11 148.838 70.11 231.117-0.213 110.265-44.109 215.953-122.078 293.923s-183.659 121.865-293.922 122.077zM662.801 342.801c6.007-6.067 9.378-14.263 9.378-22.801s-3.371-16.734-9.378-22.801c-6.118-5.914-14.293-9.22-22.801-9.22s-16.683 3.307-22.801 9.22l-105.199 105.6-105.2-105.6c-6.117-5.914-14.292-9.22-22.8-9.22s-16.684 3.307-22.8 9.22c-6.009 6.067-9.38 14.263-9.38 22.801s3.371 16.734 9.38 22.801l105.599 105.199-105.599 105.2c-5.103 6.217-7.711 14.11-7.316 22.144s3.763 15.633 9.451 21.321c5.687 5.687 13.287 9.056 21.321 9.451s15.927-2.213 22.144-7.316l105.2-105.599 105.199 105.599c6.221 5.103 14.11 7.711 22.144 7.316s15.633-3.763 21.321-9.451c5.687-5.687 9.058-13.287 9.451-21.321 0.397-8.034-2.21-15.927-7.313-22.144l-105.6-105.2 105.6-105.199z" />
<glyph unicode="&#xe905;" glyph-name="dialogue-filled" d="M298.667 384c17.778 0 32.882 6.229 45.312 18.688 12.459 12.429 18.688 27.533 18.688 45.312s-6.229 32.883-18.688 45.312c-12.43 12.459-27.534 18.688-45.312 18.688s-32.882-6.229-45.312-18.688c-12.459-12.429-18.688-27.533-18.688-45.312s6.229-32.883 18.688-45.312c12.43-12.459 27.534-18.688 45.312-18.688zM512 384c17.779 0 32.883 6.229 45.312 18.688 12.459 12.429 18.688 27.533 18.688 45.312s-6.229 32.883-18.688 45.312c-12.429 12.459-27.533 18.688-45.312 18.688s-32.883-6.229-45.312-18.688c-12.459-12.429-18.688-27.533-18.688-45.312s6.229-32.883 18.688-45.312c12.429-12.459 27.533-18.688 45.312-18.688zM725.333 384c17.779 0 32.883 6.229 45.312 18.688 12.459 12.429 18.688 27.533 18.688 45.312s-6.229 32.883-18.688 45.312c-12.429 12.459-27.533 18.688-45.312 18.688s-32.883-6.229-45.312-18.688c-12.459-12.429-18.688-27.533-18.688-45.312s6.229-32.883 18.688-45.312c12.429-12.459 27.533-18.688 45.312-18.688zM512 21.333c-59.021 0-114.489 11.209-166.4 33.621-51.911 22.387-97.067 52.779-135.467 91.179s-68.793 83.554-91.179 135.467c-22.414 51.913-33.621 107.379-33.621 166.4s11.207 114.489 33.621 166.4c22.386 51.911 52.779 97.067 91.179 135.467s83.555 68.807 135.467 91.221c51.911 22.386 107.379 33.579 166.4 33.579s114.487-11.193 166.4-33.579c51.913-22.414 97.067-52.821 135.467-91.221s68.791-83.555 91.179-135.467c22.413-51.911 33.621-107.379 33.621-166.4s-11.209-114.487-33.621-166.4c-22.387-51.913-52.779-97.067-91.179-135.467s-83.554-68.791-135.467-91.179c-51.913-22.413-107.379-33.621-166.4-33.621z" />
<glyph unicode="&#xe906;" glyph-name="email-filled" d="M853.333 789.333h-682.667c-46.933 0-84.907-38.4-84.907-85.333l-0.427-512c0-46.933 38.4-85.333 85.333-85.333h682.667c46.933 0 85.333 38.4 85.333 85.333v512c0 46.933-38.4 85.333-85.333 85.333zM836.267 608l-301.653-188.587c-13.653-8.533-31.573-8.533-45.227 0l-301.653 188.587c-4.278 2.402-8.025 5.647-11.013 9.538s-5.155 8.349-6.371 13.102c-1.216 4.753-1.454 9.704-0.701 14.552s2.482 9.493 5.082 13.654c2.601 4.16 6.018 7.75 10.046 10.551s8.582 4.757 13.388 5.747c4.805 0.99 9.761 0.995 14.569 0.015s9.366-2.926 13.399-5.719l285.867-178.773 285.867 178.773c4.032 2.793 8.593 4.739 13.397 5.719 4.809 0.98 9.766 0.975 14.571-0.015s9.361-2.945 13.389-5.747c4.028-2.801 7.445-6.391 10.044-10.551 2.603-4.16 4.331-8.806 5.082-13.654 0.755-4.848 0.516-9.798-0.7-14.552s-3.383-9.211-6.37-13.102c-2.987-3.892-6.733-7.136-11.012-9.538z" />
<glyph unicode="&#xe907;" glyph-name="fb-filled" d="M655.851 740.095h69.483v128.896c-33.643 3.837-67.443 5.731-101.265 5.675-100.527 0-169.271-67.285-169.271-190.506v-106.197h-113.463v-144.298h113.463v-369.664h136.009v369.664h113.092l17.003 144.298h-130.095v92.011c0 42.56 10.347 70.123 65.045 70.123z" />
<glyph unicode="&#xe908;" glyph-name="form-filled" d="M246.519 106.667c-20.859 0-38.716 7.522-53.571 22.558-14.854 15.044-22.281 33.122-22.281 54.242v537.6c0 21.12 7.427 39.2 22.281 54.24s32.711 22.56 53.571 22.56h159.289c8.217 23.040 21.964 41.6 41.245 55.68 19.277 14.080 40.926 21.12 64.947 21.12s45.67-7.040 64.947-21.12c19.281-14.080 33.028-32.64 41.246-55.68h159.287c20.86 0 38.716-7.52 53.572-22.56 14.852-15.040 22.281-33.12 22.281-54.24v-537.6c0-21.12-7.428-39.198-22.281-54.242-14.857-15.036-32.713-22.558-53.572-22.558h-530.962zM322.371 260.267h265.482v76.8h-265.482v-76.8zM322.371 413.867h379.257v76.8h-379.257v-76.8zM322.371 567.467h379.257v76.8h-379.257v-76.8zM512 749.867c8.218 0 15.014 2.72 20.386 8.16s8.060 12.32 8.060 20.64c0 8.32-2.688 15.2-8.060 20.64s-12.169 8.16-20.386 8.16c-8.218 0-15.014-2.72-20.386-8.16s-8.060-12.32-8.060-20.64c0-8.32 2.688-15.2 8.060-20.64s12.169-8.16 20.386-8.16z" />
<glyph unicode="&#xe909;" glyph-name="ig-filled" d="M893.739 605.655c-0.431 32.315-6.481 64.308-17.877 94.549-9.882 25.508-24.981 48.674-44.322 68.018-19.345 19.344-42.509 34.44-68.019 44.323-29.854 11.206-61.389 17.265-93.269 17.92-41.045 1.835-54.059 2.347-158.251 2.347s-117.546 0-158.293-2.347c-31.865-0.659-63.388-6.719-93.227-17.92-25.512-9.877-48.682-24.97-68.026-44.315s-34.438-42.514-44.315-68.026c-11.229-29.83-17.275-61.359-17.877-93.227-1.835-41.088-2.389-54.101-2.389-158.295 0-104.192 0-117.504 2.389-158.293 0.64-31.915 6.656-63.403 17.877-93.312 9.894-25.502 24.998-48.661 44.349-67.998s42.522-34.423 68.035-44.301c29.757-11.657 61.285-18.146 93.227-19.2 41.088-1.835 54.101-2.389 158.293-2.389s117.547 0 158.293 2.389c31.881 0.631 63.42 6.673 93.269 17.877 25.502 9.899 48.661 24.998 68.006 44.339 19.341 19.341 34.441 42.505 44.335 68.002 11.221 29.867 17.237 61.355 17.877 93.312 1.835 41.045 2.389 54.059 2.389 158.293-0.085 104.194-0.085 117.42-2.475 158.252zM511.744 251.648c-108.97 0-197.248 88.277-197.248 197.248s88.277 197.25 197.248 197.25c52.314 0 102.485-20.781 139.477-57.772 36.988-36.991 57.771-87.164 57.771-139.477s-20.783-102.481-57.771-139.473c-36.992-36.992-87.164-57.775-139.477-57.775zM716.843 607.447c-6.042-0.006-12.023 1.18-17.609 3.49-5.581 2.31-10.654 5.697-14.925 9.969-4.275 4.272-7.663 9.345-9.971 14.927s-3.494 11.567-3.49 17.608c0 6.037 1.19 12.016 3.499 17.593 2.313 5.578 5.696 10.646 9.967 14.915s9.335 7.655 14.916 9.966c5.577 2.31 11.554 3.5 17.591 3.5s12.015-1.189 17.596-3.5c5.577-2.31 10.645-5.696 14.912-9.966 4.271-4.269 7.654-9.337 9.967-14.915 2.308-5.577 3.499-11.556 3.499-17.593 0-25.429-20.565-45.995-45.952-45.995zM511.744 320.768c70.763 0 128.128 57.365 128.128 128.128 0 70.767-57.365 128.13-128.128 128.13s-128.128-57.363-128.128-128.13c0-70.763 57.365-128.128 128.128-128.128z" />
<glyph unicode="&#xe90a;" glyph-name="linkedin-filled" d="M213.333 677.28c0 20.113 7.207 36.705 21.622 49.777 14.414 13.073 33.153 19.61 56.216 19.61 22.652 0 40.978-6.435 54.981-19.308 14.415-13.274 21.622-30.57 21.622-51.889 0-19.308-7.001-35.397-21.004-48.269-14.414-13.274-33.359-19.911-56.834-19.911h-0.618c-22.651 0-40.978 6.637-54.981 19.911s-21.004 29.967-21.004 50.080zM221.364 149.333v403.049h137.143v-403.049h-137.143zM434.492 149.333h137.143v225.054c0 14.080 1.647 24.943 4.941 32.585 5.764 13.675 14.519 25.242 26.257 34.692 11.738 9.455 26.458 14.178 44.169 14.178 46.127 0 69.188-30.366 69.188-91.106v-215.403h137.143v231.091c0 59.533-14.413 104.683-43.243 135.454s-66.923 46.158-114.287 46.158c-53.129 0-94.515-22.324-124.169-66.975v-1.207h-0.619l0.619 1.207v57.321h-137.143c0.823-12.871 1.237-52.896 1.237-120.071s-0.414-161.502-1.237-282.978z" />
<glyph unicode="&#xe90b;" glyph-name="location-filled" d="M512.401 896c-93.325-0.106-182.796-37.225-248.786-103.215s-103.109-155.461-103.215-248.785c0-301.201 320.001-528.798 333.599-538.398 5.453-3.631 11.853-5.568 18.402-5.568 6.545 0 12.949 1.937 18.398 5.568 13.602 9.6 333.602 237.197 333.602 538.398-0.107 93.324-37.227 182.795-103.215 248.785-65.993 65.99-155.465 103.11-248.785 103.215zM512.401 672c25.314 0 50.061-7.507 71.113-21.572 21.047-14.065 37.457-34.056 47.142-57.445 9.69-23.389 12.224-49.126 7.283-73.956-4.937-24.828-17.126-47.637-35.029-65.536-17.903-17.903-40.708-30.093-65.54-35.034-24.828-4.937-50.564-2.402-73.954 7.287-23.39 9.685-43.379 26.091-57.443 47.142-14.065 21.047-21.572 45.798-21.572 71.113 0 33.948 13.486 66.505 37.49 90.51 24.006 24.005 56.561 37.49 90.511 37.49z" />
<glyph unicode="&#xe90c;" glyph-name="number-of-views-filled" d="M512 192c158.635 0 303.403 128.384 384 256-98.091 121.259-212.992 256-384 256s-285.909-134.741-384-256c80.597-127.616 225.365-256 384-256zM572.339 387.661c-16.004-16.004-37.709-24.994-60.339-24.994s-44.335 8.99-60.339 24.994c-16.004 16.004-24.994 37.709-24.994 60.339s8.99 44.335 24.994 60.339c16.004 16.004 37.709 24.994 60.339 24.994s44.335-8.99 60.339-24.994c16.004-16.004 24.994-37.709 24.994-60.339s-8.99-44.335-24.994-60.339z" />
<glyph unicode="&#xe90d;" glyph-name="packing-filled" d="M168.951 64v550.4l-83.618 181.333 77.186 36.267 100.77-215.467h497.419l100.774 215.467 77.184-36.267-83.618-181.333v-550.4h-686.097zM426.238 362.667h171.526c12.147 0 22.332 4.087 30.549 12.267 8.222 8.179 12.331 18.313 12.331 30.4s-4.109 22.221-12.331 30.4c-8.218 8.179-18.402 12.267-30.549 12.267h-171.526c-12.15 0-22.334-4.087-30.553-12.267s-12.328-18.313-12.328-30.4c0-12.087 4.109-22.221 12.328-30.4s18.403-12.267 30.553-12.267z" />
<glyph unicode="&#xe90e;" glyph-name="phone-filled" d="M706.219 15.659c-61.44 2.261-235.563 26.325-417.92 208.64-182.315 182.357-206.336 356.439-208.64 417.921-3.413 93.696 68.352 184.704 151.253 220.245 9.983 4.311 20.915 5.952 31.724 4.762s21.123-5.168 29.929-11.546c68.267-49.749 115.371-125.013 155.819-184.192 8.9-13.002 12.706-28.823 10.692-44.45-2.018-15.627-9.711-29.966-21.615-40.286l-83.243-61.825c-4.022-2.901-6.853-7.168-7.967-12.002s-0.436-9.907 1.908-14.281c18.859-34.261 52.395-85.291 90.795-123.691 38.443-38.4 91.861-74.155 128.512-95.147 4.595-2.577 10.005-3.298 15.117-2.014 5.107 1.284 9.532 4.48 12.361 8.926l54.187 82.475c9.963 13.235 24.657 22.101 41.011 24.738 16.35 2.641 33.092-1.148 46.711-10.573 60.032-41.557 130.091-87.851 181.376-153.515 6.895-8.87 11.281-19.43 12.702-30.575 1.417-11.145-0.183-22.468-4.638-32.785-35.712-83.328-126.080-154.283-220.075-150.827z" />
<glyph unicode="&#xe90f;" glyph-name="refund-filled" d="M807.040 690.868c-61.555 63.673-141.222 104.162-227.682 116.478l24.644 24.643c9.762 9.763 9.762 25.592 0 35.355-9.762 9.762-25.591 9.762-35.358 0l-63.309-63.31c-9.766-9.762-9.766-25.592 0-35.355l63.309-63.31c4.881-4.881 11.281-7.323 17.677-7.323s12.796 2.442 17.677 7.323c9.762 9.762 9.762 25.592 0 35.355l-14.157 14.159c68.689-13.442 131.686-47.498 181.248-98.765 62.507-64.66 96.934-149.814 96.934-239.773 0-190.242-154.773-345.011-345.011-345.011s-345.012 154.769-345.012 345.011c0 72.589 22.278 142.031 64.428 200.811 41.275 57.562 98.175 100.514 164.554 124.21 13.004 4.643 19.778 18.947 15.139 31.952-4.642 13.004-18.949 19.78-31.952 15.139-76.006-27.135-141.144-76.295-188.375-142.164-48.277-67.327-73.794-146.842-73.794-229.952 0-105.51 41.088-204.706 115.697-279.313s173.804-115.695 279.315-115.695c105.51 0 204.706 41.088 279.317 115.695 74.607 74.607 115.695 173.803 115.695 279.317 0 102.997-39.415 200.491-110.985 274.523zM266.153 416.346c0-141.632 115.227-256.858 256.86-256.858s256.858 115.226 256.858 256.858c0 141.632-115.226 256.863-256.858 256.863-141.635 0-256.86-115.229-256.86-256.863zM538.359 394.095c-35.985 12.719-56.836 22.75-71.962 34.611-18.62 14.605-27.14 39.821-22.242 65.813 5.312 28.198 24.977 50.644 51.315 58.579 0.367 0.11 0.725 0.198 1.088 0.305v10.067c0 13.807 11.196 25 25.003 25 13.803 0 24.998-11.193 24.998-25v-8.475c17.455-4.088 29.636-12.067 34.564-15.748 11.059-8.268 13.321-23.936 5.052-34.995-8.265-11.059-23.927-13.321-34.991-5.052-5.295 3.955-19.904 12.467-41.289 6.025-12.638-3.806-15.906-16.243-16.606-19.964-1.387-7.351 0.205-14.268 3.959-17.212 13.082-10.253 36.544-19.311 57.771-26.812 38.835-13.726 60.429-49.702 53.734-89.519-3.285-19.546-13.12-37.687-27.695-51.076-10.022-9.207-21.7-15.753-34.5-19.447v-11.968c0-13.807-11.196-25.003-24.998-25.003-13.807 0-25.003 11.196-25.003 25.003v9.51c-16.631 1.954-30.511 7.078-49.173 19.285-11.554 7.561-14.793 23.057-7.236 34.611 7.561 11.554 23.057 14.793 34.607 7.232 17.306-11.319 23.851-12.361 46.635-12.203 22.438 0.149 35.452 16.875 38.054 32.346 1.276 7.556 1.762 26.010-21.086 34.086z" />
<glyph unicode="&#xe910;" glyph-name="shipped-filled" d="M479.979 51.52v378.091l-330.666 191.18v-334.604c0-14.003 3.392-26.859 10.175-38.562 6.782-11.708 16.245-21.060 28.389-28.062l292.102-168.043zM543.979 51.52l292.1 168.043c12.143 7.002 21.606 16.354 28.39 28.062 6.784 11.703 10.176 24.559 10.176 38.562v334.604l-330.667-191.18v-378.091zM707.012 597.568l132.843 76.882-289.314 166.318c-12.143 7.002-24.998 10.502-38.562 10.502-13.568 0-26.419-3.501-38.566-10.502l-93.701-53.744 327.301-189.456zM511.979 484.749l131.034 75.405-327.464 189.702-131.693-75.651 328.123-189.456z" />
<glyph unicode="&#xe911;" glyph-name="shipping-filled" d="M249.339 125.542c-33.303 0-61.578 11.644-84.826 34.94-23.248 23.292-34.871 51.575-34.871 84.851h-72.205v445.538c0 21.552 7.467 39.795 22.4 54.729s33.176 22.4 54.728 22.4h580.921v-162.462h113.229l137.847-184.614v-175.59h-77.124c0-33.276-11.657-61.559-34.97-84.851-23.313-23.296-51.622-34.94-84.924-34.94s-61.577 11.644-84.826 34.94c-23.249 23.292-34.871 51.575-34.871 84.851h-280.617c0-33.365-11.656-61.675-34.968-84.919-23.312-23.249-51.619-34.871-84.923-34.871zM249.437 189.538c15.644 0 28.855 5.389 39.631 16.166 10.776 10.773 16.164 23.987 16.164 39.629 0 15.646-5.388 28.855-16.164 39.633s-23.987 16.162-39.631 16.162c-15.645 0-28.856-5.385-39.632-16.162s-16.164-23.987-16.164-39.633c0-15.642 5.388-28.855 16.164-39.629 10.776-10.778 23.987-16.166 39.632-16.166zM769.643 189.538c15.646 0 28.855 5.389 39.629 16.166 10.778 10.773 16.166 23.987 16.166 39.629 0 15.646-5.389 28.855-16.166 39.633-10.773 10.778-23.983 16.162-39.629 16.162s-28.855-5.385-39.633-16.162c-10.778-10.778-16.162-23.987-16.162-39.633 0-15.642 5.385-28.855 16.162-39.629 10.778-10.778 23.987-16.166 39.633-16.166zM715.486 394.667h191.181l-110.771 146.874h-80.41v-146.874z" />
<glyph unicode="&#xe912;" glyph-name="star-filled" d="M917.346 500.143l-171.695-149.841 51.435-223.087c2.722-11.661 1.946-23.868-2.236-35.093-4.177-11.221-11.571-20.966-21.252-28.011-9.685-7.044-21.235-11.076-33.199-11.593-11.964-0.521-23.817 2.5-34.074 8.683l-194.573 118.016-194.156-118.016c-10.257-6.182-22.109-9.203-34.073-8.683-11.965 0.516-23.511 4.548-33.196 11.593s-17.078 16.789-21.256 28.011c-4.177 11.226-4.954 23.433-2.233 35.093l51.356 222.861-171.732 150.067c-9.083 7.838-15.651 18.176-18.88 29.73-3.229 11.55-2.976 23.799 0.728 35.207s10.694 21.469 20.093 28.921c9.399 7.452 20.789 11.963 32.742 12.967l226.362 19.606 88.361 210.754c4.612 11.059 12.395 20.505 22.366 27.149 9.975 6.644 21.687 10.19 33.673 10.19 11.981 0 23.697-3.545 33.668-10.19s17.754-16.090 22.37-27.149l88.623-210.754 226.287-19.606c11.955-1.004 23.343-5.515 32.742-12.967s16.388-17.513 20.092-28.921c3.703-11.408 3.959-23.657 0.73-35.207-3.23-11.554-9.796-21.892-18.88-29.73h-0.192z" />
<glyph unicode="&#xe913;" d="M896 746.667h-768c-11.316 0-22.168-4.495-30.17-12.497s-12.497-18.854-12.497-30.17v-170.667h38.101c42.496 0 81.92-29.056 88.747-70.997 2.080-12.245 1.462-24.802-1.811-36.783-3.272-11.985-9.12-23.108-17.136-32.602-8.015-9.489-18.005-17.114-29.272-22.345s-23.54-7.94-35.962-7.94h-42.667v-170.667c0-11.315 4.495-22.17 12.497-30.17s18.854-12.497 30.17-12.497h768c11.315 0 22.17 4.497 30.17 12.497s12.497 18.854 12.497 30.17v170.667h-42.667c-12.42 0-24.695 2.709-35.964 7.94-11.264 5.231-21.257 12.855-29.269 22.345-8.017 9.493-13.867 20.617-17.139 32.602-3.273 11.981-3.887 24.538-1.809 36.783 6.827 41.941 46.251 70.997 88.747 70.997h38.101v170.667c0 11.316-4.497 22.168-12.497 30.17s-18.854 12.497-30.17 12.497z" />
<glyph unicode="&#xe914;" d="M356.267 672v74.667h55.467v-74.667c0-15.317-12.417-27.733-27.733-27.733s-27.733 12.416-27.733 27.733zM384 550.4c15.316 0 27.733-12.417 27.733-27.733v-149.333c0-15.317-12.417-27.733-27.733-27.733s-27.733 12.416-27.733 27.733v149.333c0 15.316 12.416 27.733 27.733 27.733zM384 251.733c15.316 0 27.733-12.416 27.733-27.733v-74.667h-55.467v74.667c0 15.317 12.416 27.733 27.733 27.733z" />
<glyph unicode="&#xe915;" glyph-name="tick-filled" d="M512 874.667c-235.093 0-426.667-191.573-426.667-426.667s191.573-426.667 426.667-426.667c235.093 0 426.667 191.573 426.667 426.667s-191.573 426.667-426.667 426.667zM715.947 546.133l-241.92-241.92c-5.999-5.995-14.131-9.357-22.613-9.357s-16.614 3.362-22.613 9.357l-120.747 120.747c-5.951 6.020-9.289 14.148-9.289 22.613s3.337 16.593 9.289 22.613c12.373 12.373 32.853 12.373 45.227 0l98.133-98.133 219.307 219.307c12.373 12.373 32.853 12.373 45.227 0s12.373-32.427 0-45.227z" />
<glyph unicode="&#xe916;" glyph-name="time-filled" d="M512 864c229.76 0 416-186.24 416-416s-186.24-416-416-416c-229.76 0-416 186.24-416 416s186.24 416 416 416zM544 704c0 8.487-3.371 16.626-9.374 22.627-5.999 6.001-14.14 9.373-22.626 9.373s-16.627-3.372-22.626-9.373c-6.003-6.001-9.374-14.141-9.374-22.627v-256c0-17.664 14.336-32 32-32h192c8.486 0 16.627 3.371 22.626 9.374 6.003 5.999 9.374 14.14 9.374 22.626s-3.371 16.627-9.374 22.626c-5.999 6.003-14.14 9.374-22.626 9.374h-160v224z" />
<glyph unicode="&#xe917;" glyph-name="twitter-filled" d="M568.209 500.271l248.674 289.062h-58.927l-215.923-250.989-172.457 250.989h-198.909l260.787-379.541-260.787-303.125h58.931l228.020 265.054 182.127-265.054h198.912l-270.447 393.604zM487.497 406.451l-236.665 338.52h90.514l416.636-595.958h-90.513l-179.972 257.438z" />
<glyph unicode="&#xe918;" glyph-name="youtube-filled" d="M529.015 192.67l-157.565 2.778c-51.016 0.969-102.159-0.964-152.174 9.062-76.085 14.98-81.475 88.431-87.116 150.042-7.772 86.618-4.763 174.805 9.903 260.698 8.279 48.195 40.863 76.954 91.251 80.083 170.099 11.357 341.327 10.011 511.051 4.713 17.924-0.486 35.972-3.14 53.645-6.162 87.249-14.739 89.374-97.974 95.031-168.042 5.641-70.793 3.255-141.948-7.522-212.254-8.649-58.214-25.199-107.034-95.031-111.748-87.497-6.161-172.983-11.123-260.723-9.545 0.004 0.375-0.503 0.375-0.751 0.375zM436.382 340.053c65.937 36.484 130.615 72.363 196.173 108.604-66.061 36.484-130.615 72.363-196.173 108.605v-217.208z" />
<glyph unicode="&#xe919;" glyph-name="account" d="M368.693 761.974c38.007 38.007 89.556 59.36 143.307 59.36s105.301-21.352 143.309-59.36c38.007-38.007 59.358-89.556 59.358-143.307s-21.35-105.301-59.358-143.309c-6.746-6.741-13.918-12.962-21.449-18.633 41.553-16.474 79.735-41.357 111.957-73.574 62.012-62.012 96.849-146.121 96.849-233.818v-42.667c0-17.673-14.327-32-32-32s-32 14.327-32 32v42.667c0 70.724-28.096 138.551-78.106 188.561s-117.837 78.106-188.561 78.106c-70.724 0-138.552-28.096-188.562-78.106s-78.105-117.837-78.105-188.561v-42.667c0-17.673-14.327-32-32-32s-32 14.327-32 32v42.667c0 87.697 34.838 171.806 96.85 233.818 32.22 32.218 70.404 57.101 111.958 73.574-7.534 5.67-14.704 11.891-21.448 18.633-38.007 38.007-59.36 89.558-59.36 143.309s21.352 105.3 59.36 143.307zM512 757.333c-36.779 0-72.047-14.609-98.052-40.614s-40.614-61.276-40.614-98.052c0-36.777 14.609-72.047 40.614-98.052s61.274-40.614 98.052-40.614c36.779 0 72.047 14.609 98.052 40.614s40.614 61.276 40.614 98.052c0 36.777-14.609 72.047-40.614 98.052s-61.274 40.614-98.052 40.614z" />
<glyph unicode="&#xe91a;" glyph-name="alert" d="M53.333 448c0 253.321 205.346 458.667 458.667 458.667s458.667-205.346 458.667-458.667c0-253.321-205.346-458.667-458.667-458.667s-458.667 205.346-458.667 458.667zM512 842.667c-217.975 0-394.667-176.692-394.667-394.667s176.692-394.667 394.667-394.667c217.975 0 394.667 176.691 394.667 394.667s-176.691 394.667-394.667 394.667zM512 693.333c17.673 0 32-14.327 32-32v-256c0-17.673-14.327-32-32-32s-32 14.327-32 32v256c0 17.673 14.327 32 32 32zM533.952 258.385c13.077-11.887 14.042-32.124 2.15-45.201l-0.427-0.469c-11.887-13.077-32.124-14.042-45.201-2.15-13.077 11.887-14.042 32.124-2.15 45.201l0.427 0.469c11.887 13.077 32.124 14.042 45.201 2.15z" />
<glyph unicode="&#xe91b;" glyph-name="arrow-2-down" d="M480 768v-517.414l-220.227 220.224c-12.571 12.57-32.975 12.497-45.455-0.162-12.352-12.535-12.279-32.687 0.163-45.129l297.518-297.519 297.515 297.519c12.446 12.442 12.518 32.593 0.166 45.129-12.48 12.659-32.887 12.732-45.457 0.162l-220.228-220.224v517.414h-63.996z" />
<glyph unicode="&#xe91c;" glyph-name="arrow-2-left" d="M314.582 416l220.227-220.224c12.57-12.57 12.497-32.977-0.166-45.457-12.531-12.352-32.683-12.279-45.129 0.166l-297.515 297.515 297.515 297.518c12.446 12.443 32.597 12.516 45.129 0.163 12.663-12.48 12.736-32.884 0.166-45.455l-220.227-220.227h517.418v-64h-517.418z" />
<glyph unicode="&#xe91d;" glyph-name="arrow-2-right" d="M709.414 416h-517.414v64h517.414l-220.224 220.227c-12.57 12.571-12.497 32.975 0.162 45.455 12.535 12.352 32.687 12.279 45.129-0.163l297.519-297.518-297.519-297.515c-12.442-12.446-32.593-12.518-45.129-0.166-12.659 12.48-12.732 32.887-0.162 45.457l220.224 220.224z" />
<glyph unicode="&#xe91e;" glyph-name="arrow-2-up" d="M480 128v517.417l-220.227-220.227c-12.571-12.57-32.975-12.497-45.455 0.166-12.352 12.531-12.279 32.683 0.163 45.129l297.518 297.515 297.515-297.515c12.446-12.446 12.518-32.597 0.166-45.129-12.48-12.663-32.887-12.736-45.457-0.166l-220.228 220.227v-517.417h-63.996z" />
<glyph unicode="&#xe91f;" glyph-name="arrow-down" d="M233.373 598.627c12.497 12.497 32.758 12.497 45.255 0l233.373-233.371 233.374 233.371c12.497 12.497 32.755 12.497 45.252 0s12.497-32.758 0-45.255l-256-255.999c-12.497-12.497-32.755-12.497-45.252 0l-256.001 255.999c-12.497 12.497-12.497 32.758 0 45.255z" />
<glyph unicode="&#xe920;" glyph-name="arrow-left" d="M662.626 726.627c12.497-12.497 12.497-32.758 0-45.255l-233.37-233.373 233.37-233.374c12.497-12.497 12.497-32.755 0-45.252s-32.755-12.497-45.252 0l-256.001 256c-12.497 12.497-12.497 32.755 0 45.252l256.001 256.001c12.497 12.497 32.755 12.497 45.252 0z" />
<glyph unicode="&#xe921;" glyph-name="arrow-right" d="M361.373 726.627c12.497 12.497 32.758 12.497 45.255 0l255.999-256.001c12.497-12.497 12.497-32.755 0-45.252l-255.999-256c-12.497-12.497-32.758-12.497-45.255 0s-12.497 32.755 0 45.252l233.371 233.374-233.371 233.373c-12.497 12.497-12.497 32.758 0 45.255z" />
<glyph unicode="&#xe922;" glyph-name="arrow-up" d="M489.374 598.627c12.497 12.497 32.755 12.497 45.252 0l256-256.001c12.497-12.497 12.497-32.755 0-45.252s-32.755-12.497-45.252 0l-233.374 233.37-233.373-233.37c-12.497-12.497-32.758-12.497-45.255 0s-12.497 32.755 0 45.252l256.001 256.001z" />
<glyph unicode="&#xe923;" glyph-name="bookmark" d="M298.667 800c-14.145 0-27.71-5.619-37.712-15.621s-15.621-23.567-15.621-37.712v-624.047l203.191 130.641c0 0 0 0 0.004 0.004 18.931 12.173 40.964 18.65 63.471 18.65s44.54-6.477 63.471-18.65c0.004-0.004 0.004-0.004 0.009-0.004l203.187-130.641v624.047c0 14.145-5.619 27.71-15.62 37.712s-23.569 15.621-37.713 15.621h-426.667zM215.7 829.634c22.004 22.004 51.848 34.366 82.967 34.366h426.667c31.117 0 60.962-12.362 82.965-34.366 22.007-22.004 34.368-51.848 34.368-82.967v-682.667c0-11.708-6.391-22.477-16.666-28.087s-22.793-5.158-32.64 1.169l-252.506 162.351c-8.606 5.538-18.624 8.482-28.855 8.482s-20.25-2.944-28.851-8.482l-0.009-0.004-252.501-162.347c-9.847-6.327-22.364-6.78-32.639-1.169s-16.667 16.38-16.667 28.087v682.667c0 31.119 12.362 60.963 34.366 82.967z" />
<glyph unicode="&#xe924;" glyph-name="calendar" d="M805.999 773.999h-86.997v28.001c0 16.569-13.431 30-30.003 30-16.567 0-29.999-13.431-29.999-30v-28.001h-293.999v28.001c0 16.569-13.431 30-30 30s-30-13.431-30-30v-28.001h-87c-49.626 0-90-40.374-90-90v-529.999c0-49.626 40.374-90.001 90-90.001h587.999c49.626 0 90.001 40.375 90.001 90.001v529.999c0 49.626-40.375 90-90.001 90zM218 713.999h87v-30c0-16.569 13.431-30 30-30s30 13.431 30 30v30h293.999v-30c0-16.569 13.431-30 29.999-30 16.572 0 30.003 13.431 30.003 30v30h86.997c16.542 0 30.003-13.458 30.003-30v-88h-648.002v88c0 16.542 13.458 30 30 30zM805.999 123.998h-587.999c-16.542 0-30 13.461-30 30.003v381.999h648.002v-381.999c0-16.542-13.461-30.003-30.003-30.003zM394.501 405.001c0-16.572-13.431-29.999-30-29.999h-59.001c-16.569 0-30 13.427-30 29.999 0 16.567 13.431 29.999 30 29.999h59.001c16.569 0 30-13.431 30-29.999zM571.499 405.001c0-16.572-13.427-29.999-29.999-29.999h-58.999c-16.572 0-29.999 13.427-29.999 29.999 0 16.567 13.427 29.999 29.999 29.999h58.999c16.572 0 29.999-13.431 29.999-29.999zM748.501 405.001c0-16.572-13.431-29.999-29.999-29.999h-59.004c-16.567 0-29.999 13.427-29.999 29.999 0 16.567 13.431 29.999 29.999 29.999h59.004c16.567 0 29.999-13.431 29.999-29.999zM394.501 256c0-16.567-13.431-29.999-30-29.999h-59.001c-16.569 0-30 13.431-30 29.999s13.431 29.999 30 29.999h59.001c16.569 0 30-13.431 30-29.999zM571.499 256c0-16.567-13.427-29.999-29.999-29.999h-58.999c-16.572 0-29.999 13.431-29.999 29.999s13.427 29.999 29.999 29.999h58.999c16.572 0 29.999-13.431 29.999-29.999zM748.501 256c0-16.567-13.431-29.999-29.999-29.999h-59.004c-16.567 0-29.999 13.431-29.999 29.999s13.431 29.999 29.999 29.999h59.004c16.567 0 29.999-13.431 29.999-29.999z" />
<glyph unicode="&#xe925;" glyph-name="camera" d="M602.347 874.621c18.398 0.001 36.48-4.723 52.45-13.705s29.278-21.91 38.601-37.504l38.204-63.987h97.199c40.448 0 79.236-15.79 107.84-43.898s44.681-66.232 44.693-105.99v-438.269c0-19.691-3.947-39.185-11.61-57.378-7.667-18.189-18.901-34.718-33.067-48.64-14.165-13.926-30.98-24.969-49.485-32.503s-38.34-11.413-58.372-11.413h-633.6c-40.454 0-79.252 15.795-107.857 43.917-28.605 28.117-44.676 66.253-44.676 106.018v438.269c0 39.765 16.070 77.901 44.676 106.019s67.403 43.915 107.857 43.915h97.621l41.067 65.694c9.443 15.122 22.671 27.612 38.422 36.278s33.499 13.219 51.549 13.224l178.487-0.046zM602.347 805.42h-178.487c-5.136-0.004-10.209-1.113-14.863-3.249s-8.776-5.247-12.077-9.115l-3.051-4.152-51.298-82.118c-3.145-5.044-7.554-9.21-12.805-12.102s-11.168-4.411-17.186-4.414h-117.333c-10.79 0.006-21.475-2.078-31.445-6.132s-19.030-10-26.662-17.498c-7.632-7.497-13.686-16.399-17.816-26.198s-6.257-20.3-6.257-30.906v-438.269c0-44.565 36.796-80.734 82.133-80.734h633.6c21.781 0 42.675 8.503 58.078 23.646s24.055 35.674 24.055 57.088v438.269c0 21.412-8.653 41.947-24.055 57.088s-36.297 23.646-58.078 23.646h-117.333c-6.135-0.003-12.164 1.57-17.493 4.564-5.325 2.994-9.762 7.305-12.873 12.505l-48.435 81.057c-3.106 5.193-7.535 9.5-12.851 12.494-5.321 2.993-11.341 4.571-17.468 4.576v-0.047zM512 621.070c56.013 0 109.734-21.872 149.342-60.805s61.858-91.738 61.858-146.796c0-55.061-22.251-107.866-61.858-146.799-39.607-38.929-93.329-60.804-149.342-60.804s-109.733 21.875-149.341 60.804c-39.607 38.933-61.859 91.738-61.859 146.799 0 55.057 22.252 107.861 61.859 146.796 39.608 38.932 93.328 60.805 149.341 60.805zM512 551.87c-18.492 0-36.8-3.58-53.884-10.535-17.079-6.955-32.602-17.149-45.677-30s-23.446-28.109-30.522-44.902c-7.076-16.789-10.718-34.786-10.718-52.962s3.642-36.173 10.718-52.966c7.076-16.789 17.447-32.047 30.522-44.898s28.597-23.049 45.677-30.003c17.084-6.955 35.392-10.534 53.884-10.534 37.342 0 73.156 14.583 99.563 40.538 26.402 25.954 41.237 61.158 41.237 97.865s-14.835 71.906-41.237 97.865c-26.406 25.954-62.221 40.535-99.563 40.535z" />
<glyph unicode="&#xe926;" glyph-name="cart" d="M382.047 181.973h40.13c-29.678-13.214-50.369-42.573-50.369-76.591 0-46.349 38.411-84.049 85.63-84.049s85.632 37.7 85.632 84.049c0 34.018-20.689 63.377-50.368 76.591h204.062c-29.679-13.214-50.368-42.573-50.368-76.591 0-46.349 38.409-84.049 85.628-84.049 47.223 0 85.632 37.7 85.632 84.049 0 34.018-20.689 63.377-50.368 76.591h73.843c17.165 0 31.078 13.658 31.078 30.507 0 16.845-13.914 30.502-31.078 30.502h-459.084c-17.46 0-28.8 18.031-20.999 33.348l6.489 12.74h473.594c13.875 0 26.069 9.024 29.884 22.123l109.107 374.828c5.662 19.452-9.225 38.884-29.884 38.884h-687.569l-24.731 84.969c-3.81 13.097-16.007 22.125-29.882 22.125h-134.313c-17.163 0-31.077-13.658-31.077-30.504s13.914-30.504 31.077-30.504h110.871c30.785-105.773 100.641-345.764 130.513-448.39l-9.673-18.987c-28.497-55.949 13.007-121.643 76.592-121.643zM868.407 212.48c0-14.784-12.211-26.773-27.277-26.773h-384.218c0.175 0 0.35 0 0.525 0s0.35 0 0.525 0h273.536c0.175 0 0.35 0 0.525 0s0.354 0 0.529 0h108.578c15.066 0 27.277 11.989 27.277 26.773zM732.023 25.062c45.124 0 81.83 36.032 81.83 80.32 0-44.288-36.706-80.32-81.83-80.32zM457.438 25.062c45.12 0 81.83 36.032 81.83 80.32 0-44.288-36.71-80.32-81.83-80.32zM280.427 663.898h628.617l-91.354-313.823h-445.917l-91.346 313.823zM457.438 128.427c12.941 0 23.475-10.338 23.475-23.044 0-12.702-10.534-23.040-23.475-23.040s-23.475 10.338-23.475 23.040c0 12.706 10.534 23.044 23.475 23.044zM732.023 128.427c12.945 0 23.479-10.338 23.479-23.044 0-12.702-10.534-23.040-23.479-23.040-12.941 0-23.475 10.338-23.475 23.040 0 12.706 10.534 23.044 23.475 23.044z" />
<glyph unicode="&#xe927;" glyph-name="chart" d="M920.606 109.888c0-6.511-2.586-12.757-7.194-17.365-4.604-4.604-10.85-7.194-17.365-7.194h-785.86c-6.513 0-12.759 2.59-17.365 7.194-4.606 4.608-7.193 10.854-7.193 17.365v654.884c0 6.513 2.587 12.759 7.193 17.365s10.852 7.193 17.365 7.193c6.513 0 12.76-2.587 17.365-7.193s7.193-10.852 7.193-17.365v-404.307l221.228 193.598c4.239 3.704 9.623 5.839 15.248 6.048s11.152-1.522 15.654-4.902l246.033-184.513 246.972 216.111c4.945 3.808 11.153 5.591 17.365 4.987s11.959-3.552 16.077-8.242c4.117-4.69 6.293-10.772 6.089-17.010s-2.778-12.163-7.198-16.572l-261.952-229.211c-4.241-3.703-9.621-5.837-15.249-6.046-5.623-0.209-11.149 1.523-15.654 4.902l-246.030 184.35-238.583-208.747v-160.772h761.302c6.515 0 12.762-2.59 17.365-7.194 4.608-4.604 7.194-10.85 7.194-17.365zM347.552 563.702c6.449 5.635 14.638 8.882 23.195 9.2s16.965-2.315 23.814-7.456l237.725-178.284 239.782 209.786c7.522 5.793 16.969 8.506 26.415 7.586 9.451-0.919 18.197-5.402 24.461-12.538s9.574-16.387 9.259-25.876c-0.311-9.489-4.224-18.503-10.944-25.21l-0.299-0.297-262.268-229.484c-6.451-5.636-14.647-8.892-23.206-9.207-8.55-0.316-16.956 2.313-23.804 7.45zM611.682 309.372l-237.731 178.129-226.406-198.089v-142.165h748.502c9.907 0 19.409-3.938 26.415-10.944 7.010-7.006 10.944-16.508 10.944-26.415s-3.934-19.409-10.944-26.415c-7.006-7.006-16.508-10.944-26.415-10.944h-785.86c-9.908 0-19.41 3.938-26.416 10.944s-10.942 16.508-10.942 26.415v654.884c0 9.908 3.936 19.41 10.942 26.416s16.508 10.942 26.416 10.942c9.908 0 19.41-3.936 26.416-10.942s10.942-16.508 10.942-26.416v-376.1l200.006 175.030zM134.745 360.465v404.307c0 6.513-2.587 12.759-7.193 17.365s-10.852 7.193-17.365 7.193c-6.513 0-12.759-2.587-17.365-7.193s-7.193-10.852-7.193-17.365v-654.884c0-6.511 2.587-12.757 7.193-17.365 4.605-4.604 10.852-7.194 17.365-7.194h785.86c6.515 0 12.762 2.59 17.365 7.194 4.608 4.608 7.194 10.854 7.194 17.365 0 6.515-2.586 12.762-7.194 17.365-4.604 4.604-10.85 7.194-17.365 7.194h-761.302v160.772l238.583 208.747 246.030-184.35c4.506-3.379 10.031-5.111 15.654-4.902 5.628 0.209 11.008 2.342 15.249 6.046l261.952 229.211c4.42 4.409 6.993 10.334 7.198 16.572s-1.971 12.32-6.089 17.010c-4.117 4.69-9.865 7.637-16.077 8.242s-12.42-1.178-17.365-4.987l-246.972-216.111-246.033 184.513c-4.502 3.38-10.029 5.11-15.654 4.902s-11.009-2.344-15.248-6.048l-221.228-193.598z" />
<glyph unicode="&#xe928;" glyph-name="chatbot" d="M898.833 654.693h-56.708c-18.569 44.177-46.234 84.914-81.276 118.88-55.078 53.388-126.383 88.176-200.781 97.955-123.285 16.205-244.119-31.013-323.22-126.306-22.7-27.348-41.173-57.952-54.809-90.53h-56.872c-45.49 0-82.5-37.010-82.5-82.5v-110.002c0-45.487 37.009-82.496 82.5-82.496h112.658l-11.781 36.041c-34.331 105.037-14.967 212.326 53.124 294.359 66.957 80.666 169.288 120.63 273.728 106.903 130.82-17.195 236.745-119.931 257.587-249.838 14.221-88.645-10.59-178.215-68.079-245.757-57.621-67.695-141.444-106.59-229.982-106.709-45.722-0.064-82.923-37.073-82.923-82.5 0-45.491 37.013-82.5 82.5-82.5 45.491 0 82.5 37.009 82.5 82.5v37.15c73.259 17.399 139.857 57.749 189.79 116.412 24.252 28.493 43.558 59.972 57.719 93.939h56.823c45.491 0 82.5 37.009 82.5 82.5v109.999c0 45.489-37.009 82.499-82.5 82.499zM163.786 434.692h-38.619c-15.163 0-27.5 12.339-27.5 27.499v110.002c0 15.164 12.337 27.5 27.5 27.5h38.947c-0.979-4.121-1.885-8.265-2.713-12.419-10.038-50.292-9.222-101.467 2.385-152.582zM539.499 132.194c0-15.164-12.335-27.503-27.499-27.503s-27.499 12.339-27.499 27.503c0 15.142 12.557 27.477 27.994 27.499 9.050 0.013 18.061 0.367 27.004 1.058v-28.557zM926.332 462.191c0-15.159-12.335-27.499-27.499-27.499h-38.967c10.923 45.926 12.595 93.329 4.919 141.182-1.28 7.99-2.871 15.933-4.727 23.819h38.775c15.164 0 27.499-12.336 27.499-27.5v-110.002zM374.499 544.693h55.001v-54.999h-55.001v54.999zM484.51 544.693h54.997v-54.999h-54.997v54.999zM594.509 544.693h55.002v-54.999h-55.002v54.999zM264.489 324.698v-55.002h247.502c136.469 0 247.497 111.031 247.497 247.501 0 136.473-111.027 247.501-247.497 247.501-136.474 0-247.502-111.028-247.502-247.501 0-55.62 18.68-109.397 52.853-152.879-6.629-23.177-27.797-39.62-52.853-39.62zM511.991 709.698c106.142 0 192.499-86.355 192.499-192.501 0-106.142-86.357-192.499-192.499-192.499h-152.212c7.881 13.636 12.788 28.902 14.249 44.864l1.080 11.776-7.805 8.883c-30.831 35.102-47.813 80.196-47.813 126.976 0 106.146 86.355 192.501 192.502 192.501z" />
<glyph unicode="&#xe929;" glyph-name="checkbox-check" d="M833.293 683.961c12.497-12.497 12.497-32.758 0-45.255l-426.665-426.665c-12.497-12.497-32.758-12.497-45.255 0l-170.667 170.667c-12.497 12.497-12.497 32.755 0 45.252s32.758 12.497 45.255 0l148.039-148.036 404.041 404.038c12.497 12.497 32.755 12.497 45.252 0z" />
<glyph unicode="&#xe92a;" glyph-name="instagram" d="M512 576c-33.946 0-66.505-13.486-90.51-37.49s-37.49-56.564-37.49-90.51c0-33.946 13.486-66.505 37.49-90.509s56.564-37.491 90.51-37.491c33.946 0 66.505 13.487 90.509 37.491s37.491 56.563 37.491 90.509c0 33.946-13.487 66.505-37.491 90.51s-56.563 37.49-90.509 37.49zM512 661.333c56.58 0 110.844-22.476 150.848-62.484 40.009-40.008 62.485-94.269 62.485-150.849s-22.477-110.844-62.485-150.848c-40.004-40.009-94.268-62.485-150.848-62.485s-110.842 22.477-150.849 62.485c-40.008 40.004-62.484 94.268-62.484 150.848s22.476 110.842 62.484 150.849c40.008 40.008 94.269 62.484 150.849 62.484zM789.333 672c0-14.145-5.619-27.71-15.62-37.712s-23.569-15.621-37.713-15.621c-14.144 0-27.712 5.619-37.713 15.621s-15.62 23.567-15.62 37.712c0 14.145 5.619 27.71 15.62 37.712s23.569 15.621 37.713 15.621c14.144 0 27.712-5.619 37.713-15.621s15.62-23.567 15.62-37.712zM512 789.333c-105.557 0-122.795-0.299-171.904-2.475-33.451-1.579-55.893-6.059-76.715-14.165-17.424-6.397-33.177-16.651-46.080-29.995-13.354-12.902-23.622-28.654-30.037-46.080-8.107-20.907-12.587-43.307-14.123-76.715-2.219-47.104-2.475-63.573-2.475-171.904 0-105.557 0.299-122.795 2.475-171.904 1.579-33.408 6.059-55.893 14.123-76.672 7.253-18.56 15.787-31.915 29.952-46.080 14.379-14.336 27.733-22.912 46.080-29.995 21.077-8.149 43.52-12.672 76.8-14.208 47.104-2.219 63.573-2.475 171.904-2.475 105.557 0 122.795 0.299 171.904 2.475 33.365 1.579 55.851 6.059 76.672 14.123 17.399 6.43 33.139 16.661 46.080 29.952 14.379 14.379 22.955 27.733 30.037 46.080 8.107 21.035 12.629 43.52 14.165 76.8 2.219 47.104 2.475 63.573 2.475 171.904 0 105.557-0.299 122.795-2.475 171.904-1.579 33.365-6.059 55.893-14.165 76.715-6.43 17.408-16.678 33.154-29.995 46.080-12.898 13.361-28.651 23.63-46.080 30.037-20.907 8.107-43.349 12.587-76.715 14.123-47.104 2.219-63.573 2.475-171.904 2.475zM512 874.667c115.925 0 130.389-0.427 175.872-2.56 45.44-2.133 76.373-9.259 103.595-19.84 28.16-10.837 51.883-25.515 75.605-49.195 21.696-21.329 38.485-47.129 49.195-75.605 10.539-27.179 17.707-58.155 19.84-103.595 2.005-45.483 2.56-59.947 2.56-175.872s-0.427-130.389-2.56-175.872c-2.133-45.44-9.301-76.373-19.84-103.595-10.679-28.493-27.473-54.298-49.195-75.605-21.333-21.687-47.134-38.477-75.605-49.195-27.179-10.539-58.155-17.707-103.595-19.84-45.483-2.005-59.947-2.56-175.872-2.56s-130.389 0.427-175.872 2.56c-45.44 2.133-76.373 9.301-103.595 19.84-28.487 10.688-54.292 27.482-75.605 49.195-21.7 21.325-38.488 47.125-49.195 75.605-10.581 27.179-17.707 58.155-19.84 103.595-2.005 45.483-2.56 59.947-2.56 175.872s0.427 130.389 2.56 175.872c2.133 45.483 9.259 76.373 19.84 103.595 10.677 28.494 27.469 54.301 49.195 75.605 21.319 21.708 47.122 38.497 75.605 49.195 27.221 10.581 58.112 17.707 103.595 19.84 45.483 2.005 59.947 2.56 175.872 2.56z" />
<glyph unicode="&#xe92b;" glyph-name="checkbox-unCheck" d="M170.667 960h682.667c94.257 0 170.667-76.41 170.667-170.667v-682.667c0-94.257-76.41-170.667-170.667-170.667h-682.667c-94.257 0-170.667 76.41-170.667 170.667v682.667c0 94.257 76.41 170.667 170.667 170.667z" />
<glyph unicode="&#xe92c;" glyph-name="clock" d="M53.333 448c0 253.321 205.346 458.667 458.667 458.667s458.667-205.346 458.667-458.667c0-253.321-205.346-458.667-458.667-458.667s-458.667 205.346-458.667 458.667zM512 842.667c-217.975 0-394.667-176.692-394.667-394.667s176.692-394.667 394.667-394.667c217.975 0 394.667 176.691 394.667 394.667s-176.691 394.667-394.667 394.667zM475.021 399.386v252.559c0 9.807 3.895 19.212 10.829 26.147 6.938 6.935 16.341 10.831 26.15 10.831 9.805 0 19.213-3.896 26.146-10.831s10.829-16.34 10.829-26.147v-213.361l138.479-93.888c8.013-5.47 13.577-13.884 15.454-23.403 1.873-9.515-0.064-19.392-5.402-27.49-5.333-8.102-13.641-13.781-23.125-15.817s-19.392-0.26-27.58 4.941l-0.213 0.137-171.567 116.322z" />
<glyph unicode="&#xe92d;" glyph-name="close" d="M230.354 729.646c14.164 14.162 37.127 14.16 51.289-0.005l230.31-230.351 230.4 230.356c14.165 14.162 37.129 14.16 51.29-0.005s14.161-37.127-0.004-51.289l-230.374-230.331 230.374-230.379c14.165-14.161 14.165-37.124 0-51.29-14.161-14.161-37.124-14.161-51.285 0l-230.357 230.357-230.356-230.357c-14.163-14.161-37.126-14.161-51.289 0-14.163 14.165-14.163 37.129 0 51.29l230.333 230.336-230.336 230.378c-14.161 14.164-14.159 37.127 0.005 51.289z" />
<glyph unicode="&#xe92e;" glyph-name="contact-person" d="M515.917 88h-291.815c-13.52 0-21.672 7.945-25.333 12.676-6.315 8.179-8.758 18.816-6.705 29.201 32.885 166.268 172.281 287.693 333.201 291.631 2.684-0.102 5.367-0.175 8.068-0.175 2.637 0 5.257 0.068 7.868 0.171 49.882-1.126 97.451-12.949 141.513-35.221 15.77-7.97 34.684-0.969 42.253 15.62 7.573 16.593 0.93 36.51-14.835 44.476-15.569 7.872-31.505 14.605-47.761 20.267 52.361 41.387 86.298 107.28 86.298 181.355 0 124.98-96.593 226.666-215.334 226.666-118.73 0-215.332-101.686-215.332-226.666 0-74.179 34.029-140.156 86.521-181.53-48.088-16.661-93.213-42.577-132.704-76.77-72.413-62.694-122.758-150.144-141.764-246.238-5.956-30.11 1.181-61.035 19.575-84.843 18.307-23.697 45.453-37.286 74.473-37.286h291.815c17.493 0 31.667 14.925 31.667 33.335s-14.174 33.331-31.667 33.331zM381.335 648c0 88.223 68.189 160 151.999 160 83.814 0 152-71.777 152-160 0-85.735-64.388-155.93-144.943-159.825-2.351 0.047-4.693 0.107-7.057 0.107-2.475 0-4.945-0.038-7.42-0.085-80.38 4.087-144.579 74.199-144.579 159.804zM926.925 276.992c-29.811-30.268-59.631-48.469-89.254-18.014l-25.6 26.743c0 0-33.114-15.518-70.571-54.946l-1.801-1.903c-37.453-39.42-52.198-74.274-52.198-74.274l25.408-26.948c28.932-31.189 11.639-62.571-17.114-93.956-14.349-15.659-37.901-16.559-53.286-2.018l-0.388 0.371c-18.052 18.995-26.594 45.427-26.453 75.358l0.175 0.188c0.252 53.286 28.028 117.675 78.626 170.974 50.633 53.257 111.799 82.5 162.428 82.761 28.433 0.149 53.547-8.832 71.599-27.836l0.346-0.418c13.811-16.183 12.962-40.981-1.916-56.081z" />
<glyph unicode="&#xe92f;" glyph-name="delete" d="M802.999 774.667h-125.001v25c0 41.355-33.643 75-74.999 75h-200c-41.355 0-75-33.645-75-75v-25h-125c-41.355 0-75-33.645-75-75 0-33.213 21.708-61.435 51.675-71.268l44.592-538.291c3.212-38.566 36.042-68.774 74.74-68.774h407.988c38.699 0 71.526 30.208 74.743 68.783l44.587 538.284c29.965 9.831 51.674 38.053 51.674 71.267 0 41.355-33.643 75-74.999 75zM378 799.667c0 13.785 11.215 25 25 25h200c13.786 0 25.003-11.215 25.003-25v-25h-250.002v25zM731.908 94.255c-1.075-12.851-12.015-22.921-24.913-22.921h-407.988c-12.899 0-23.842 10.069-24.91 22.912l-43.94 530.42h545.685l-43.934-530.412zM802.999 674.667h-600c-13.785 0-25 11.215-25 25s11.215 25 25 25h600c13.786 0 24.998-11.215 24.998-25s-11.213-25-24.998-25zM402.954 147.883l-25 403.335c-0.855 13.782-12.783 24.264-26.499 23.405-13.781-0.855-24.26-12.719-23.407-26.499l25-403.335c0.822-13.257 11.828-23.454 24.928-23.454 14.478 0 25.865 12.194 24.977 26.547zM503.002 574.672c-13.807 0-25.003-11.193-25.003-25v-403.334c0-13.807 11.196-24.998 25.003-24.998s24.998 11.191 24.998 24.998v403.334c0 13.807-11.191 25-24.998 25zM654.545 574.623c-13.747 0.855-25.643-9.623-26.496-23.405l-25.003-403.335c-0.849-13.777 9.63-25.643 23.407-26.496 13.79-0.853 25.647 9.63 26.5 23.403l24.998 403.335c0.853 13.782-9.626 25.645-23.407 26.499z" />
<glyph unicode="&#xe930;" glyph-name="discount" d="M144.093 732.277c38.959 37.876 99.446 46.389 175.907 46.389h384c76.463 0 136.947-8.513 175.906-46.389 39.275-38.185 48.094-97.72 48.094-172.277v-37.333c0-17.673-14.327-32-32-32-17.259 0-33.638-6.673-45.577-18.283-11.904-11.575-18.423-27.081-18.423-43.051s6.519-31.475 18.423-43.055c11.938-11.605 28.318-18.278 45.577-18.278 17.673 0 32-14.327 32-32 0-74.556-8.819-134.093-48.094-172.275-38.959-37.879-99.443-46.391-175.906-46.391h-384c-76.461 0-136.948 8.512-175.907 46.391-39.276 38.182-48.093 97.719-48.093 172.275v18.667c0 17.673 14.327 32 32 32 17.26 0 33.638 6.673 45.576 18.278 11.907 11.58 18.424 27.085 18.424 43.055s-6.517 31.475-18.424 43.051c-11.938 11.61-28.315 18.283-45.576 18.283-17.673 0-32 14.327-32 32v18.667c0 74.557 8.818 134.093 48.093 172.277zM160.056 569.339c21.733-5.504 41.852-16.57 58.132-32.399 24.1-23.43 37.811-55.404 37.811-88.94s-13.711-65.51-37.811-88.939c-16.281-15.829-36.399-26.897-58.132-32.401 0.843-68.288 11.107-99.994 28.65-117.052 18.641-18.121 54.154-28.275 131.293-28.275h384c77.137 0 112.653 10.155 131.294 28.275 15.872 15.433 25.783 42.854 28.156 98.513-21.547 5.547-41.481 16.563-57.638 32.273-24.098 23.428-37.811 55.403-37.811 88.939s13.713 65.51 37.811 88.939c16.294 15.844 36.433 26.915 58.189 32.415v9.313c0 74.776-10.381 108.574-28.706 126.389-18.641 18.124-54.157 28.277-131.294 28.277h-384c-77.139 0-112.652-10.154-131.293-28.277-17.544-17.056-27.807-48.762-28.65-117.050zM650.142 591.64c12.322-12.672 12.036-32.931-0.636-45.251l-230.4-224c-12.672-12.318-32.931-12.032-45.251 0.636-12.32 12.672-12.034 32.934 0.637 45.252l230.4 224c12.672 12.32 32.93 12.034 45.248-0.637zM341.333 533.333c0 23.564 19.103 42.667 42.667 42.667h0.341c23.564 0 42.667-19.103 42.667-42.667s-19.103-42.667-42.667-42.667h-0.341c-23.564 0-42.667 19.102-42.667 42.667zM596.949 362.667c0 23.565 19.102 42.667 42.667 42.667h0.384c23.565 0 42.667-19.102 42.667-42.667s-19.102-42.667-42.667-42.667h-0.384c-23.565 0-42.667 19.102-42.667 42.667z" />
<glyph unicode="&#xe931;" glyph-name="distance" d="M414.397 288.192h-228.742c-6.5 0-12.734-2.573-17.33-7.155s-7.178-10.799-7.178-17.28v-48.87c0-36.727 14.632-71.949 40.677-97.916 26.045-25.971 61.37-40.559 98.202-40.559s72.158 14.588 98.202 40.559c26.045 25.967 40.675 61.188 40.675 97.916v48.87c0 6.481-2.581 12.698-7.177 17.28s-10.83 7.155-17.329 7.155zM389.889 214.886c0-23.765-9.468-46.554-26.32-63.36-16.853-16.802-39.71-26.24-63.543-26.24s-46.69 9.438-63.543 26.24c-16.852 16.806-26.32 39.595-26.32 63.36v24.435h179.726v-24.435zM300.026 874.667c-44.114 0-87.575-40.361-122.54-113.629-55.797-117.376-74.709-291.32 0-382.431 2.301-2.803 5.2-5.060 8.485-6.609 3.285-1.553 6.874-2.355 10.509-2.351h206.399c3.634-0.004 7.223 0.798 10.509 2.351 3.285 1.549 6.183 3.806 8.485 6.609 74.832 91.11 55.918 265.055 0 382.431-34.393 73.268-77.854 113.629-121.846 113.629zM390.829 418.522h-181.728c-41.215 61.824-47.75 194.065 12.826 321.745 30.063 63.087 60.821 85.527 78.099 85.527s47.995-22.441 78.018-85.527c60.535-127.68 53.999-259.921 12.785-321.745zM839.206 190.447h-228.745c-6.498 0-12.732-2.573-17.331-7.155-4.595-4.582-7.177-10.799-7.177-17.28v-48.87c0-36.727 14.63-71.949 40.678-97.916 26.044-25.971 61.367-40.559 98.202-40.559s72.158 14.588 98.202 40.559c26.044 25.967 40.678 61.188 40.678 97.916v48.87c0 6.481-2.586 12.698-7.181 17.28s-10.829 7.155-17.327 7.155zM814.694 117.141c0-23.765-9.468-46.554-26.317-63.36-16.853-16.802-39.71-26.24-63.543-26.24s-46.69 9.438-63.543 26.24c-16.853 16.806-26.321 39.595-26.321 63.36v24.435h179.725v-24.435zM621.615 271.902h206.396c3.635-0.004 7.223 0.798 10.509 2.347 3.285 1.553 6.187 3.81 8.486 6.613 74.833 91.106 55.919 265.054 0 382.43-34.598 73.268-78.059 113.629-122.172 113.629-44.117 0-87.535-40.361-122.543-113.629-55.795-117.376-74.709-291.324 0-382.43 2.347-2.859 5.312-5.15 8.67-6.699 3.362-1.553 7.031-2.325 10.735-2.261h-0.081zM646.814 642.521c30.025 63.249 60.783 85.527 78.020 85.527s47.953-22.441 78.016-85.527c60.578-127.517 54.042-259.759 12.826-321.745h-181.645c-41.216 61.824-47.748 194.065 12.868 321.745h-0.085z" />
<glyph unicode="&#xe932;" glyph-name="download" d="M487.599 237.146c0.815-0.815 1.673-1.587 2.564-2.321 0.393-0.32 0.806-0.602 1.212-0.905 0.508-0.38 1.003-0.772 1.532-1.126 0.495-0.329 1.007-0.614 1.51-0.917 0.469-0.282 0.93-0.58 1.417-0.836 0.521-0.282 1.054-0.516 1.583-0.764 0.503-0.239 0.994-0.491 1.51-0.7 0.516-0.213 1.045-0.388 1.574-0.576 0.546-0.196 1.088-0.405 1.647-0.576 0.529-0.158 1.062-0.277 1.591-0.41 0.576-0.145 1.139-0.307 1.719-0.422 0.614-0.119 1.233-0.192 1.852-0.282 0.508-0.073 1.011-0.171 1.527-0.222 1.148-0.111 2.295-0.175 3.447-0.175 1.148 0 2.3 0.064 3.439 0.175 0.529 0.051 1.037 0.149 1.553 0.226 0.61 0.085 1.22 0.158 1.826 0.277 0.593 0.115 1.173 0.282 1.754 0.427 0.521 0.137 1.045 0.247 1.557 0.401 0.572 0.175 1.126 0.388 1.685 0.589 0.516 0.188 1.033 0.354 1.54 0.563 0.525 0.218 1.024 0.469 1.536 0.713 0.521 0.247 1.050 0.482 1.562 0.755 0.491 0.26 0.951 0.555 1.421 0.841 0.508 0.303 1.020 0.585 1.51 0.917 0.516 0.341 1.003 0.73 1.498 1.101 0.418 0.311 0.845 0.597 1.246 0.93 0.853 0.7 1.664 1.434 2.445 2.21 0.034 0.034 0.077 0.064 0.111 0.102l162.914 162.901c13.636 13.636 13.636 35.738 0 49.37-13.628 13.632-35.733 13.632-49.365 0.004l-103.322-103.317v427.721c0 19.279-15.633 34.909-34.91 34.909-19.281 0-34.91-15.63-34.91-34.909v-427.717l-103.313 103.309c-13.631 13.632-35.735 13.632-49.368 0s-13.633-35.733 0-49.37l162.904-162.897zM861.385 459.639c-19.281 0-34.91-15.629-34.91-34.91v-267.635h-628.365v267.635c0 19.281-15.63 34.91-34.909 34.91s-34.909-15.629-34.909-34.91v-302.545c0-19.277 15.63-34.906 34.909-34.906h698.184c19.277 0 34.906 15.629 34.906 34.906v302.545c0 19.281-15.629 34.91-34.906 34.91z" />
<glyph unicode="&#xe933;" glyph-name="edit" d="M920.704 647.341l-218.274 218.273c-12.070 12.070-34.197 12.070-46.268 0l-109.641-109.639c0 0-0.503 0-1.007-0.503s0-0.503-0.503-1.006l-450.122-449.621c-6.035-6.037-9.556-14.583-9.556-23.134v-219.281c0-18.103 14.585-32.687 32.691-32.687h218.272c8.55 0 17.1 3.52 23.135 9.553l561.273 562.278c12.574 12.573 12.574 33.697 0 46.27v-0.503zM322.717 94.618h-172.003v173.009l417.938 418.441 172.002-172.002-418.441-418.944 0.503-0.503zM787.426 560.334l-172.002 172.003 63.872 63.872 172.002-172.003-63.872-63.872z" />
<glyph unicode="&#xe934;" glyph-name="email" d="M272.451 594.353c10.135 14.479 30.088 18 44.566 7.865l194.982-136.49 194.982 136.49c14.477 10.135 34.432 6.614 44.565-7.865 10.138-14.478 6.613-34.431-7.863-44.566l-213.333-149.335c-11.017-7.71-25.685-7.71-36.702 0l-213.333 149.335c-14.479 10.135-18 30.088-7.865 44.566zM170.667 714.667c-14.145 0-27.71-5.619-37.712-15.621s-15.621-23.567-15.621-37.712v-426.667c0-14.144 5.619-27.712 15.621-37.713s23.567-15.62 37.712-15.62h682.667c14.144 0 27.712 5.619 37.713 15.62s15.62 23.569 15.62 37.713v426.667c0 14.145-5.619 27.71-15.62 37.712s-23.569 15.621-37.713 15.621h-682.667zM87.7 744.3c22.004 22.004 51.848 34.366 82.967 34.366h682.667c31.117 0 60.962-12.362 82.965-34.366 22.007-22.004 34.368-51.848 34.368-82.967v-426.667c0-31.117-12.361-60.962-34.368-82.965-22.003-22.007-51.849-34.368-82.965-34.368h-682.667c-31.119 0-60.963 12.361-82.967 34.368-22.004 22.003-34.366 51.849-34.366 82.965v426.667c0 31.119 12.362 60.963 34.366 82.967z" />
<glyph unicode="&#xe935;" glyph-name="fax" d="M734.878 652.8v166.4h-445.757v-166.4h-55.72v179.2c0 23.564 19.102 42.667 42.667 42.667h471.867c23.565 0 42.667-19.103 42.667-42.667v-179.2h-55.723zM824.887 458.667c15.787 0 29.022 5.316 39.701 15.949 10.679 10.628 16.021 23.804 16.021 39.518s-5.342 28.889-16.021 39.52c-10.679 10.631-23.915 15.946-39.701 15.946s-29.022-5.315-39.701-15.946c-10.679-10.631-16.017-23.806-16.017-39.52s5.338-28.89 16.017-39.518c10.679-10.633 23.915-15.949 39.701-15.949zM734.878 76.8v251.733h-445.757v-251.733h445.757zM790.601 64c0-23.565-19.102-42.667-42.667-42.667h-471.867c-23.564 0-42.667 19.102-42.667 42.667v179.2h-190.734v298.667c0 31.431 10.715 57.777 32.146 79.040s47.862 31.893 79.293 31.893h715.786c31.578 0 58.044-10.631 79.403-31.893s32.038-47.609 32.038-79.040v-298.667h-190.733v-179.2zM925.615 298.667v243.2c0 15.715-5.342 28.889-16.021 39.52s-23.915 15.947-39.701 15.947h-715.786c-15.787 0-29.021-5.315-39.7-15.947s-16.019-23.804-16.019-39.52v-243.2h135.014v85.333h557.2v-85.333h135.014z" />
<glyph unicode="&#xe936;" glyph-name="filter" d="M512 74.667c-17.673 0-32 14.327-32 32v170.667c0 17.673 14.327 32 32 32s32-14.327 32-32v-53.333h309.333c17.673 0 32-14.327 32-32s-14.327-32-32-32h-309.333v-53.333c0-17.673-14.327-32-32-32zM170.667 160c-17.673 0-32 14.327-32 32s14.327 32 32 32h170.667c17.673 0 32-14.327 32-32s-14.327-32-32-32h-170.667zM341.333 330.667c-17.673 0-32 14.327-32 32v53.333h-138.667c-17.673 0-32 14.327-32 32s14.327 32 32 32h138.667v53.333c0 17.673 14.327 32 32 32s32-14.327 32-32v-170.667c0-17.673-14.327-32-32-32zM512 416c-17.673 0-32 14.327-32 32s14.327 32 32 32h341.333c17.673 0 32-14.327 32-32s-14.327-32-32-32h-341.333zM682.667 586.667c-17.673 0-32 14.327-32 32v170.667c0 17.673 14.327 32 32 32s32-14.327 32-32v-53.333h138.667c17.673 0 32-14.327 32-32s-14.327-32-32-32h-138.667v-53.333c0-17.673-14.327-32-32-32zM170.667 672c-17.673 0-32 14.327-32 32s14.327 32 32 32h341.333c17.673 0 32-14.327 32-32s-14.327-32-32-32h-341.333z" />
<glyph unicode="&#xe937;" glyph-name="gallery" d="M366.895 343.915h398.767l-132.429 173.948-101.419-129.643-66.953 82.871-97.967-127.177zM323.408 188.019c-21.553 0-39.795 7.467-54.728 22.4s-22.4 33.173-22.4 54.729v485.74c0 21.552 7.467 39.795 22.4 54.729s33.175 22.4 54.728 22.4h485.74c21.555 0 39.795-7.467 54.729-22.4s22.4-33.176 22.4-54.729v-485.74c0-21.555-7.467-39.795-22.4-54.729s-33.173-22.4-54.729-22.4h-485.74zM323.408 252.015h485.74c3.285 0 6.293 1.37 9.028 4.105s4.1 5.743 4.1 9.028v485.74c0 3.282-1.365 6.291-4.1 9.027s-5.743 4.102-9.028 4.102h-485.74c-3.283 0-6.291-1.367-9.026-4.102s-4.104-5.745-4.104-9.027v-485.74c0-3.285 1.368-6.293 4.104-9.028s5.743-4.105 9.026-4.105zM174.075 38.686c-21.551 0-39.794 7.467-54.727 22.4s-22.4 33.178-22.4 54.729v517.74c0 17.673 14.327 32 31.999 32s32-14.327 32-32v-517.74c0-3.281 1.367-6.293 4.102-9.028s5.745-4.1 9.026-4.1h517.743c17.673 0 31.996-14.327 31.996-32s-14.323-32-31.996-32h-517.743z" />
<glyph unicode="&#xe938;" glyph-name="hamburger-menu" d="M96 746.667c0 17.673 14.327 32 32 32h768c17.673 0 32-14.327 32-32s-14.327-32-32-32h-768c-17.673 0-32 14.327-32 32zM96 448c0 17.673 14.327 32 32 32h768c17.673 0 32-14.327 32-32s-14.327-32-32-32h-768c-17.673 0-32 14.327-32 32zM96 149.333c0 17.673 14.327 32 32 32h768c17.673 0 32-14.327 32-32s-14.327-32-32-32h-768c-17.673 0-32 14.327-32 32z" />
<glyph unicode="&#xe939;" glyph-name="hide" d="M105.373 854.627c12.497 12.497 32.758 12.497 45.255 0l767.999-768.001c12.497-12.497 12.497-32.755 0-45.252s-32.755-12.497-45.252 0l-304.166 304.166c-18.436-10.304-39.462-15.522-60.881-14.857-29.845 0.926-58.219 13.193-79.334 34.308-21.114 21.116-33.384 49.489-34.309 79.334-0.664 21.419 4.551 42.445 14.856 60.881l-304.166 304.165c-12.497 12.497-12.497 32.758 0 45.255zM459.174 455.573c-0.439-3.051-0.619-6.148-0.521-9.267 0.418-13.564 5.995-26.462 15.595-36.058 9.596-9.6 22.494-15.177 36.062-15.595 3.115-0.098 6.212 0.081 9.263 0.521l-60.399 60.399zM480 704c0 17.673 14.327 32 32 32 188.578 0 312.666-148.936 408.879-267.874 8.627-10.667 9.498-25.643 2.163-37.235-14.733-23.283-30.827-45.679-48.196-67.068-11.145-13.717-31.296-15.804-45.013-4.663-13.722 11.145-15.808 31.296-4.668 45.018 10.978 13.508 21.389 27.465 31.219 41.826-95.701 116.972-198.46 225.997-344.384 225.997-17.673 0-32 14.327-32 32zM340.316 655.765c10.144-14.472 6.636-34.427-7.836-44.571-61.543-43.139-114.473-103.567-164.864-165.195 37.205-54.336 86.077-107.366 141.936-147.972 62.452-45.397 131.843-74.027 202.448-74.027 58.846 0 116.821 19.866 170.82 52.898 15.078 9.22 34.778 4.476 43.998-10.598 9.22-15.078 4.476-34.778-10.598-43.998-61.372-37.538-130.799-62.302-204.22-62.302-88.029 0-170.34 35.563-240.080 86.259-69.804 50.743-128.815 117.897-170.976 184.653-7.322 11.593-6.444 26.564 2.184 37.222 54.296 67.073 116.659 142.224 192.617 195.467 14.472 10.144 34.427 6.636 44.571-7.836z" />
<glyph unicode="&#xe93a;" glyph-name="history" d="M199.058 120.452c-1.589 3.388-2.495 7.057-2.667 10.795s0.395 7.471 1.666 10.991c1.271 3.516 3.224 6.75 5.745 9.515s5.563 5.005 8.95 6.592c3.387 1.591 7.055 2.496 10.792 2.667 3.737 0.175 7.472-0.393 10.991-1.664 0.003 0 0.006-0.004 0.009-0.004-3.519 1.271-7.253 1.839-10.991 1.668-3.737-0.175-7.404-1.079-10.792-2.667-3.387-1.591-6.429-3.831-8.95-6.596s-4.474-5.999-5.745-9.515c-1.271-3.52-1.838-7.253-1.666-10.991s1.078-7.407 2.667-10.79c1.589-3.388 3.829-6.43 6.593-8.951 41.004-37.338 88.368-66.765 139.684-86.967-51.319 20.203-98.686 49.63-139.692 86.972-2.764 2.522-5.005 5.559-6.594 8.947zM376.522 73.702c29.208-10.573 59.719-17.754 90.942-21.269 83.255-9.382 167.347 7.735 240.316 48.913 72.964 41.178 131.081 104.324 166.080 180.446 35.004 76.122 45.103 161.344 28.864 243.537-16.235 82.193-57.984 157.172-119.305 214.266-37.786 35.183-81.813 62.469-129.502 80.65 47.684-18.181 91.712-45.466 129.493-80.647 61.321-57.094 103.070-132.073 119.305-214.265 16.239-82.197 6.14-167.42-28.864-243.541-34.999-76.122-93.116-139.264-166.080-180.442-72.964-41.182-157.060-58.295-240.316-48.917-31.223 3.52-61.728 10.697-90.934 21.269zM152.186 618.668c0-0.001-0.001-0.002-0.001-0.003h155.022c3.505 0 6.944-0.647 10.156-1.875-3.215 1.23-6.656 1.878-10.164 1.878h-155.013zM56.896 561.779v250.308c0 7.544 2.996 14.779 8.331 20.113s12.569 8.331 20.113 8.331c3.505 0 6.944-0.647 10.156-1.875-3.215 1.23-6.656 1.878-10.164 1.878-7.544 0-14.779-2.996-20.113-8.331s-8.331-12.569-8.331-20.113v-250.311h0.009zM113.785 668.176v-0.018c39.543 70.988 97.274 130.169 167.26 171.461s149.705 63.206 230.964 63.491c55.676 0.009 110.72-10.196 162.445-29.95-51.729 19.757-106.778 29.963-162.453 29.953-81.259-0.285-160.978-22.199-230.964-63.49-65.107-38.413-119.607-92.308-158.726-156.788-2.928-4.827-5.771-9.714-8.525-14.658zM276.7 846.972c-62.366-36.796-115.178-87.537-154.391-148.076v113.195c0 9.807-3.896 19.212-10.831 26.147s-16.34 10.831-26.147 10.831c-9.807 0-19.213-3.896-26.147-10.831s-10.831-16.34-10.831-26.147v-258.845h258.845c9.807 0 19.212 3.896 26.147 10.831s10.831 16.34 10.831 26.147c0 9.807-3.896 19.212-10.831 26.147s-16.34 10.831-26.147 10.831h-141.274c35.49 68.608 90.629 125.221 158.51 162.507 71.86 39.472 154.34 55.273 235.701 45.155s157.457-45.639 217.463-101.51c60.002-55.87 100.855-129.243 116.745-209.676 15.889-80.435 6.007-163.827-28.245-238.319-34.249-74.492-91.123-136.282-162.522-176.576-71.403-40.299-153.694-57.050-235.166-47.868-81.473 9.178-157.974 43.823-218.617 98.999-3.59 3.273-7.79 5.807-12.359 7.458-4.573 1.651-9.426 2.389-14.283 2.163-4.857-0.222-9.622-1.399-14.024-3.465s-8.354-4.975-11.631-8.567c-3.276-3.593-5.813-7.795-7.466-12.369-1.652-4.57-2.388-9.425-2.165-14.281 0.223-4.86 1.401-9.621 3.465-14.025s4.982-8.358 8.574-11.635c55.7-50.722 122.92-87.108 195.844-106.010 72.926-18.897 149.355-19.746 222.682-2.466 73.323 17.28 141.333 52.169 198.144 101.645 56.806 49.476 100.706 112.047 127.893 182.306 27.191 70.255 36.851 146.078 28.143 220.907-8.704 74.828-35.511 146.409-78.101 208.548s-99.678 112.963-166.327 148.077c-66.65 35.113-140.881 53.457-216.213 53.445-82.773-0.29-163.979-22.612-235.27-64.674zM475.021 651.944v-252.559l171.78-116.459c8.188-5.201 18.095-6.976 27.58-4.941s17.792 7.714 23.125 15.817c5.338 8.098 7.275 17.975 5.402 27.49-1.877 9.519-7.441 17.933-15.454 23.403l-138.479 93.888v213.361c0 9.807-3.895 19.212-10.829 26.147s-16.341 10.831-26.146 10.831c-9.809 0-19.213-3.896-26.15-10.831-6.933-6.935-10.829-16.34-10.829-26.147zM483.554 403.908l167.821-113.779c6.302-3.998 13.918-5.363 21.214-3.802 0.316 0.068 0.631 0.141 0.943 0.222-0.115-0.030-0.226-0.055-0.341-0.085-0.196-0.047-0.393-0.090-0.593-0.132-7.296-1.566-14.912-0.201-21.214 3.802l-167.821 113.779v248.034c0 7.544 2.995 14.779 8.333 20.113 3.191 3.192 7.061 5.548 11.273 6.924-4.211-1.376-8.090-3.732-11.281-6.927-5.338-5.334-8.333-12.569-8.333-20.113v-248.036z" />
<glyph unicode="&#xe93b;" glyph-name="information" d="M53.333 448c0 253.321 205.346 458.667 458.667 458.667s458.667-205.346 458.667-458.667c0-253.321-205.346-458.667-458.667-458.667s-458.667 205.346-458.667 458.667zM512 842.667c-217.975 0-394.667-176.692-394.667-394.667s176.692-394.667 394.667-394.667c217.975 0 394.667 176.691 394.667 394.667s-176.691 394.667-394.667 394.667zM441.37 635.6c-14.699-12.471-25.37-31.483-25.37-59.6 0-17.673-14.327-32-32-32s-32 14.327-32 32c0 46.55 18.661 83.537 47.963 108.4 28.606 24.273 65.611 35.6 101.37 35.6s72.764-11.327 101.372-35.6c29.299-24.863 47.962-61.85 47.962-108.4 0-32.678-8.371-57.579-22.042-78.084-11.486-17.233-26.415-30.554-38.161-41.037-1.284-1.143-2.526-2.253-3.725-3.332-13.103-11.793-22.985-21.517-30.225-34.308-6.925-12.241-12.514-29.338-12.514-56.572 0-17.673-14.327-32-32-32s-32 14.327-32 32c0 36.766 7.744 65.003 20.817 88.098 12.762 22.541 29.547 38.148 43.11 50.355 1.050 0.947 2.078 1.869 3.081 2.769 12.809 11.503 21.636 19.43 28.365 29.528 6.332 9.494 11.294 21.927 11.294 42.583 0 28.116-10.671 47.129-25.37 59.6-15.394 13.061-37.056 20.4-59.964 20.4s-44.57-7.34-59.964-20.4zM533.952 215.718c13.077-11.887 14.042-32.124 2.15-45.201l-0.427-0.469c-11.887-13.077-32.124-14.042-45.201-2.15-13.077 11.887-14.042 32.124-2.15 45.201l0.427 0.469c11.887 13.077 32.124 14.042 45.201 2.15z" />
<glyph unicode="&#xe93c;" glyph-name="language" d="M521.843 44.309l-39.381 118.131h-275.693c-21.661 0-40.204 7.71-55.63 23.13-15.426 15.424-23.139 33.963-23.139 55.62v511.884c0 21.656 7.713 40.224 23.139 55.704s33.969 23.221 55.63 23.221h236.307l34.462-118.128h359.381c22.976 0 41.847-7.383 56.614-22.148 14.771-14.766 22.157-33.634 22.157-56.602v-511.883c0-21.658-7.386-40.226-22.157-55.706-14.767-15.479-33.638-23.223-56.614-23.223h-315.076zM331.093 335.838c45.39 0 82.608 14.605 111.654 43.814 29.047 29.21 43.571 67.119 43.571 113.724 0 5.961-0.111 10.982-0.329 15.057-0.222 4.075-0.99 8.192-2.304 12.348h-155.974v-60.8h87.959c-5.415-18.543-15.439-32.917-30.071-43.119s-32.465-15.3-53.498-15.3c-25.634 0-47.652 9.271-66.056 27.814s-27.605 41.161-27.605 67.857c0 26.692 9.176 49.311 27.529 67.855s40.31 27.815 65.872 27.815c11.798 0 22.907-2.106 33.327-6.318s19.98-10.667 28.677-19.364l48.164 46.031c-13.841 14.277-30.436 25.408-49.79 33.394s-39.856 11.98-61.506 11.98c-43.956 0-81.524-15.658-112.703-46.974s-46.769-69.456-46.769-114.419c0-44.966 15.623-83.106 46.869-114.419 31.247-31.317 68.908-46.976 112.983-46.976zM594.624 316.147l21.824 20.757c-9.135 11.268-17.587 22.114-25.353 32.533s-15.151 21.483-22.153 33.19l25.681-86.481zM643.853 366.443c18.432 21.623 32.422 42.261 41.971 61.922 9.545 19.657 15.957 35.119 19.238 46.387h-156.471l11.738-41.476h39.108c5.214-9.873 11.447-20.535 18.701-31.987s15.825-23.066 25.715-34.846zM561.229 83.695h275.691c11.814 0 21.333 3.776 28.553 11.319 7.223 7.548 10.833 16.9 10.833 28.053v511.851c0 11.812-3.61 21.356-10.829 28.631-7.215 7.275-16.73 10.913-28.54 10.913h-347.418l46.204-159.671h77.67v41.397h40.307v-41.397h143.834v-40.038h-50.283c-6.575-24.836-16.354-49.097-29.346-72.781s-28.403-45.73-46.234-66.133l107.238-105.515-28.471-28.471-106.586 106.172-35.529-36.186 31.671-109.372-78.767-78.771z" />
<glyph unicode="&#xe93d;" glyph-name="live" d="M194.044 128c-21.552 0-39.795 7.467-54.729 22.4s-22.399 33.178-22.399 54.729v485.743c0 21.552 7.467 39.795 22.399 54.729s33.176 22.4 54.729 22.4h485.743c21.551 0 39.795-7.467 54.729-22.4s22.4-33.176 22.4-54.729v-195.281l150.148 150.151v-395.48l-150.148 150.153v-195.285c0-21.551-7.467-39.795-22.4-54.729s-33.178-22.4-54.729-22.4h-485.743zM194.044 192h485.743c3.827 0 6.976 1.233 9.434 3.695 2.462 2.462 3.695 5.606 3.695 9.434v485.743c0 3.829-1.233 6.975-3.695 9.437-2.458 2.462-5.606 3.692-9.434 3.692h-485.743c-3.829 0-6.975-1.231-9.437-3.692s-3.693-5.608-3.693-9.437v-485.743c0-3.827 1.231-6.972 3.693-9.434s5.608-3.695 9.437-3.695z" />
<glyph unicode="&#xe93e;" glyph-name="location" d="M512 842.667c-170.839 0-309.333-138.513-309.333-309.333 0-38.72 17.987-88.367 49.218-143.842 30.748-54.613 72.166-111.134 114.228-162.611 41.964-51.358 84.016-97.020 115.619-129.877 11.733-12.203 22.003-22.613 30.268-30.869 8.265 8.256 18.534 18.667 30.272 30.869 31.603 32.858 73.651 78.519 115.614 129.877 42.065 51.477 83.482 107.998 114.231 162.611 31.228 55.475 49.216 105.122 49.216 143.842 0 170.82-138.496 309.333-309.333 309.333zM512 21.333c-22.012-23.228-22.016-23.223-22.020-23.219l-0.29 0.277-0.789 0.751-2.965 2.854c-2.581 2.492-6.327 6.14-11.081 10.829-9.506 9.382-23.036 22.95-39.249 39.812-32.399 33.681-75.682 80.67-119.052 133.747-43.271 52.954-87.186 112.649-120.438 171.708-32.769 58.206-57.449 119.689-57.449 175.241 0 206.164 167.145 373.333 373.333 373.333s373.333-167.17 373.333-373.333c0-55.552-24.678-117.035-57.451-175.241-33.25-59.059-77.167-118.754-120.435-171.708-43.371-53.077-86.652-100.066-119.049-133.747-16.218-16.862-29.747-30.43-39.253-39.812-4.753-4.689-8.499-8.337-11.081-10.829l-2.965-2.854-0.789-0.751-0.269-0.26c-0.009-0.004-0.030-0.026-22.042 23.202zM512 21.333l22.042-23.202-22.042-20.885-22.020 20.868 22.020 23.219zM398.863 646.47c30.005 30.006 70.701 46.863 113.137 46.863s83.132-16.857 113.139-46.863c30.003-30.006 46.861-70.703 46.861-113.137 0-42.436-16.858-83.132-46.861-113.135-30.007-30.007-70.703-46.865-113.139-46.865s-83.132 16.858-113.137 46.861c-30.006 30.007-46.863 70.703-46.863 113.139s16.857 83.131 46.863 113.137zM512 629.333c-25.459 0-49.877-10.114-67.883-28.118-18.003-18.004-28.117-42.421-28.117-67.882 0-25.459 10.114-49.877 28.117-67.883 18.005-18.001 42.423-28.117 67.883-28.117s49.877 10.116 67.883 28.117c18.001 18.005 28.117 42.423 28.117 67.883s-10.116 49.879-28.117 67.882c-18.005 18.004-42.423 28.118-67.883 28.118z" />
<glyph unicode="&#xe93f;" glyph-name="logout" d="M620.032 221.35c0 18.398 14.916 33.314 33.318 33.314s33.318-14.916 33.318-33.314v-100.019c0-55.142-44.838-99.998-99.947-99.998h-401.447c-55.104 0-99.942 44.855-99.942 99.998v653.338c0 55.135 44.837 99.997 99.942 99.997h401.447c55.108 0 99.947-44.862 99.947-99.997v-100.019c0-18.4-14.916-33.317-33.318-33.317s-33.318 14.916-33.318 33.317v100.019c0 18.376-14.938 33.332-33.31 33.332h-401.447c-18.366 0-33.314-14.956-33.314-33.332v-653.338c0-18.377 14.948-33.331 33.314-33.331h401.447c18.372 0 33.31 14.955 33.31 33.331v100.019zM805.188 581.556c-13.018 13.024-34.129 13.024-47.142 0-13.009-13.012-13.009-34.102-0.004-47.115l53.082-53.11h-277.79v-66.667h277.79l-53.077-53.107c-13.005-13.013-13.005-34.103 0-47.113 13.013-13.026 34.125-13.026 47.142 0l133.478 133.551-133.478 133.56z" />
<glyph unicode="&#xe940;" glyph-name="minus" d="M224 448c0 17.673 14.327 32 32 32h512c17.673 0 32-14.327 32-32s-14.327-32-32-32h-512c-17.673 0-32 14.327-32 32z" />
<glyph unicode="&#xe941;" glyph-name="my-courses" d="M838.332 874.667h-562.332c-58.080 0-105.333-47.253-105.333-105.333v-642.669c0-58.078 47.253-105.331 105.332-105.331h562.333c13.807 0 24.998 11.191 24.998 24.998v803.335c0.004 13.807-11.187 25-24.998 25zM220.668 769.333c0 30.51 24.825 55.333 55.332 55.333h537.333v-592.666h-537.333c-20.287 0-39.238-5.781-55.332-15.757v553.090zM276.002 71.334c-30.512 0-55.334 24.819-55.334 55.33s24.822 55.334 55.332 55.334h537.333v-110.665h-537.332zM677.662 714h-321.334c-13.805 0-25-11.194-25-25s11.195-25 25-25h321.334c13.811 0 25.003 11.193 25.003 25s-11.196 25-25.003 25z" />
<glyph unicode="&#xe942;" glyph-name="my-orders" d="M870.562 144.567l-41.847 527.326c-2.607 33.973-31.339 60.587-65.412 60.587h-82.658v3.715c0 99.881-81.259 181.138-181.137 181.138-99.882 0-181.14-81.257-181.14-181.138v-3.715h-82.658c-34.074 0-62.807-26.612-65.405-60.515l-41.862-527.465c-3.24-42.236 11.412-84.279 40.194-115.354s69.584-48.9 111.942-48.9h437.851c42.355 0 83.162 17.822 111.945 48.9 28.783 31.074 43.43 73.118 40.188 115.422zM373.257 736.195c0 69.614 56.635 126.249 126.25 126.249 69.611 0 126.246-56.637 126.246-126.249v-3.715h-252.497v3.715zM790.101 66.441c-18.701-20.186-44.151-31.305-71.671-31.305h-437.85c-27.52 0-52.971 11.119-71.672 31.305-18.7 20.19-27.84 46.421-25.739 73.788l41.858 527.468c0.425 5.549 5.117 9.894 10.683 9.894h82.658v-67.601c0-15.156 12.288-27.444 27.445-27.444s27.444 12.288 27.444 27.444v67.601h252.497v-67.601c0-15.156 12.288-27.444 27.447-27.444 15.155 0 27.443 12.288 27.443 27.444v67.601h82.658c5.564 0 10.257-4.347 10.688-9.968l41.852-527.322c2.103-27.439-7.040-53.666-25.741-73.86zM623.147 451.93c-10.718 10.718-28.096 10.718-38.81 0l-122.547-122.547-47.121 47.125c-10.716 10.718-28.094 10.718-38.812 0s-10.718-28.096 0-38.814l66.529-66.53c5.359-5.359 12.382-8.038 19.405-8.038 7.019 0 14.046 2.679 19.401 8.038l141.952 141.952c10.722 10.722 10.722 28.096 0.004 38.814z" />
<glyph unicode="&#xe943;" glyph-name="news" d="M287.438 227.332c11.286 0 20.729 3.819 28.329 11.465s11.4 17.143 11.4 28.497c0 11.354-3.8 20.851-11.4 28.497-7.601 7.642-17.044 11.465-28.329 11.465s-20.729-3.823-28.33-11.465c-7.6-7.646-11.4-17.143-11.4-28.497s3.8-20.851 11.4-28.497c7.601-7.646 17.044-11.465 28.33-11.465zM253.755 419.127c0-18.603 15.081-33.681 33.683-33.681s33.683 15.078 33.683 33.681v209.777c0 18.603-15.081 33.683-33.683 33.683s-33.683-15.081-33.683-33.683v-209.777zM478.319 267.294c0-18.714 15.168-33.882 33.877-33.882h224.166c18.714 0 33.882 15.168 33.882 33.882s-15.168 33.882-33.882 33.882h-224.166c-18.709 0-33.877-15.168-33.877-33.882zM478.319 448c0-18.714 15.168-33.882 33.877-33.882h224.166c18.714 0 33.882 15.168 33.882 33.882s-15.168 33.882-33.882 33.882h-224.166c-18.709 0-33.877-15.168-33.877-33.882zM478.319 628.707c0-18.712 15.168-33.882 33.877-33.882h224.166c18.714 0 33.882 15.169 33.882 33.882s-15.168 33.881-33.882 33.881h-224.166c-18.709 0-33.877-15.169-33.877-33.881zM166.522 64c-22.687 0-41.89 7.906-57.609 23.718s-23.579 35.127-23.579 57.946v604.67c0 22.82 7.86 42.136 23.579 57.948s34.923 23.718 57.609 23.718h690.959c22.686 0 41.886-7.906 57.609-23.718 15.718-15.812 23.578-35.128 23.578-57.948v-604.67c0-22.818-7.859-42.133-23.578-57.946-15.723-15.812-34.923-23.718-57.609-23.718h-690.959zM166.522 131.763h690.959c3.452 0 6.622 1.451 9.502 4.343 2.876 2.897 4.318 6.084 4.318 9.557v604.67c0 3.476-1.442 6.662-4.318 9.558-2.88 2.896-6.050 4.344-9.502 4.344h-690.959c-3.456 0-6.623-1.448-9.502-4.344s-4.318-6.083-4.318-9.558v-604.67c0-3.473 1.439-6.66 4.318-9.557 2.88-2.893 6.047-4.343 9.502-4.343z" />
<glyph unicode="&#xe944;" glyph-name="notifcation" d="M307.62 816.553c53.86 57.447 127.319 90.113 204.38 90.113 77.026 0 150.519-32.715 204.369-90.103 53.756-57.338 83.631-134.716 83.631-214.963 0-154.91 31.087-252.207 60.489-309.705 14.733-28.809 29.184-47.902 39.437-59.447 5.133-5.781 9.237-9.694 11.831-11.998 1.297-1.152 2.219-1.903 2.705-2.287l0.371-0.29c11.14-8.111 15.851-22.455 11.652-35.605-4.237-13.265-16.563-22.268-30.485-22.268h-768c-13.923 0-26.249 9.003-30.484 22.268-4.198 13.15 0.512 27.499 11.652 35.605l0.372 0.29c0.484 0.384 1.405 1.135 2.702 2.287 2.594 2.304 6.699 6.217 11.833 11.998 10.253 11.546 24.702 30.639 39.434 59.447 29.402 57.498 60.491 154.795 60.491 309.705 0 80.247 29.867 157.616 83.621 214.953zM197.927 224h628.147c-7.347 11.072-14.985 23.932-22.566 38.758-34.594 67.657-67.507 175.159-67.507 338.842 0 64.559-24.060 126.109-66.3 171.17zM669.7 772.77c-42.236 45.004-99.051 69.897-157.7 69.897-58.705 0-115.465-24.848-157.69-69.886-42.246-45.062-66.31-106.617-66.31-171.18 0-163.682-32.911-271.185-67.509-338.842-7.582-14.827-15.219-27.686-22.564-38.758zM422.153 91.695c-15.295-8.858-20.515-28.433-11.661-43.729 10.304-17.796 25.104-32.572 42.922-42.846 17.818-10.27 38.020-15.676 58.586-15.676s40.768 5.406 58.586 15.676c17.813 10.274 32.619 25.050 42.923 42.846 8.853 15.296 3.631 34.871-11.661 43.729-15.296 8.853-34.876 3.631-43.729-11.661-4.681-8.090-11.405-14.801-19.499-19.469-8.098-4.668-17.276-7.121-26.62-7.121s-18.522 2.453-26.62 7.121c-8.094 4.668-14.818 11.379-19.499 19.469-8.858 15.292-28.433 20.514-43.728 11.661z" />
<glyph unicode="&#xe945;" glyph-name="pan-zoom" horiz-adv-x="983" d="M0-53.76v318.042h86.738v-170.365l193.719 193.716 60.939-60.936-193.719-193.72h170.365v-86.737h-318.042zM702.583 587.885l-60.936 60.939 193.716 193.719h-170.365v86.738h318.042v-318.042h-86.737v170.365l-193.72-193.719z" />
<glyph unicode="&#xe946;" glyph-name="payment" d="M917.333 690.871v-485.743c0-21.551-7.467-39.795-22.4-54.729s-33.178-22.4-54.729-22.4h-656.41c-21.552 0-39.795 7.467-54.729 22.4s-22.4 33.178-22.4 54.729v485.743c0 21.552 7.467 39.795 22.4 54.729s33.176 22.4 54.729 22.4h656.41c21.551 0 39.795-7.467 54.729-22.4s22.4-33.176 22.4-54.729zM170.666 601.436h682.668v89.436c0 3.282-1.37 6.292-4.105 9.027s-5.743 4.102-9.024 4.102h-656.41c-3.282 0-6.292-1.367-9.027-4.102s-4.102-5.745-4.102-9.027v-89.436zM170.666 465.233v-260.105c0-3.281 1.367-6.289 4.102-9.024s5.745-4.105 9.027-4.105h656.41c3.281 0 6.289 1.37 9.024 4.105s4.105 5.743 4.105 9.024v260.105h-682.668z" />
<glyph unicode="&#xe947;" glyph-name="phone" d="M62.95 782.553c-10.446 69.002 44.9 124.114 110.447 124.114h160.043c13.329 0 25.262-8.262 29.953-20.739l62.080-165.12c2.056-5.465 2.576-11.387 1.505-17.126l-31.118-166.906c38.243-89.945 101.407-150.391 206.192-204.599l164.894 31.953c5.854 1.135 11.908 0.61 17.481-1.51l165.632-63.104c12.407-4.727 20.608-16.627 20.608-29.905v-152.917c0-69.402-61.099-125.641-132.574-110.118l-0.017 0.004c-130.266 28.378-371.665 100.425-540.703 269.461-161.905 161.903-216.176 385.611-234.422 506.512zM173.397 842.667c-30.703 0-51.128-24.408-47.167-50.543l0.003-0.020c17.594-116.582 69.137-323.551 216.394-470.81 155.655-155.657 381.968-224.495 509.068-252.181 27.934-6.054 54.972 15.189 54.972 47.582v130.867l-136.499 52.002-166.746-32.311c-6.938-1.344-14.127-0.354-20.442 2.816-123.503 61.973-203.659 135.467-250.025 251.383-2.252 5.628-2.858 11.785-1.746 17.748l31.217 167.44-51.142 136.028h-137.887z" />
<glyph unicode="&#xe948;" glyph-name="plus" d="M512 778.667c17.673 0 32-14.327 32-32v-266.667h266.667c17.673 0 32-14.327 32-32s-14.327-32-32-32h-266.667v-266.667c0-17.673-14.327-32-32-32s-32 14.327-32 32v266.667h-266.667c-17.673 0-32 14.327-32 32s14.327 32 32 32h266.667v266.667c0 17.673 14.327 32 32 32z" />
<glyph unicode="&#xe949;" glyph-name="plus-small" d="M512 704c13.683 0 24.772-11.092 24.772-24.774v-206.453h206.455c13.679 0 24.772-11.089 24.772-24.772s-11.093-24.772-24.772-24.772h-206.455v-206.455c0-13.679-11.089-24.772-24.772-24.772s-24.772 11.093-24.772 24.772v206.455h-206.453c-13.683 0-24.774 11.089-24.774 24.772s11.092 24.772 24.774 24.772h206.453v206.453c0 13.683 11.089 24.774 24.772 24.774z" />
<glyph unicode="&#xe94a;" glyph-name="receipt" d="M373.333 800v-480c0-17.673-14.327-32-32-32s-32 14.327-32 32v486.4c0 15.276 6.068 29.927 16.871 40.729s25.453 16.871 40.729 16.871h503.467c15.275 0 29.926-6.068 40.73-16.871s16.87-25.453 16.87-40.729v-571.733c0-53.751-21.35-105.301-59.358-143.309s-89.557-59.358-143.309-59.358c-17.673 0-32 14.327-32 32s14.327 32 32 32c36.779 0 72.047 14.609 98.052 40.614s40.614 61.274 40.614 98.052v565.333h-490.667zM480 661.333c0 17.673 14.327 32 32 32h213.333c17.673 0 32-14.327 32-32s-14.327-32-32-32h-213.333c-17.673 0-32 14.327-32 32zM480 490.667c0 17.673 14.327 32 32 32h213.333c17.673 0 32-14.327 32-32s-14.327-32-32-32h-213.333c-17.673 0-32 14.327-32 32zM213.333 288c-14.145 0-27.71-5.619-37.712-15.62s-15.621-23.569-15.621-37.713v-42.667c0-25.459 10.114-49.877 28.118-67.883 18.004-18.001 42.421-28.117 67.882-28.117h334.891c-11.392 13.973-20.796 29.252-28.484 44.783-26.189 52.915-34.961 112.738-38.020 147.217h-311.053zM213.333 352h315.733c31.893 0 56.354-25.306 58.773-54.861v-0.026c2.517-31.057 10.112-83.866 31.927-127.945 21.303-43.038 53.286-73.169 105.566-73.169 17.673 0 32-14.327 32-32s-14.327-32-32-32h-469.333c-42.435 0-83.131 16.858-113.137 46.861-30.006 30.007-46.863 70.703-46.863 113.139v42.667c0 31.117 12.362 60.962 34.366 82.965 22.004 22.007 51.848 34.368 82.967 34.368z" />
<glyph unicode="&#xe94b;" glyph-name="refresh" d="M512 842.667c-217.975 0-394.667-176.692-394.667-394.667s176.692-394.667 394.667-394.667c197.815 0 361.673 145.579 390.246 335.428 2.628 17.476 18.927 29.513 36.403 26.88 17.476-2.628 29.513-18.927 26.884-36.403-33.212-220.689-223.573-389.905-453.534-389.905-253.321 0-458.667 205.346-458.667 458.667s205.346 458.667 458.667 458.667c188.1 0 349.747-113.252 420.493-275.189 7.074-16.195-0.32-35.060-16.516-42.135-16.192-7.075-35.059 0.318-42.133 16.513-60.924 139.46-200.077 236.811-361.843 236.811zM938.667 864c17.673 0 32-14.327 32-32v-187.733c0-7.564-1.489-15.054-4.386-22.042-2.893-6.988-7.134-13.338-12.484-18.687s-11.699-9.591-18.688-12.486c-6.989-2.895-14.477-4.384-22.042-4.384h-187.733c-17.673 0-32 14.327-32 32s14.327 32 32 32h181.333v181.333c0 17.673 14.327 32 32 32z" />
<glyph unicode="&#xe94c;" glyph-name="scale" d="M128 64v214.588c0 18.714 15.169 33.882 33.882 33.882s33.882-15.168 33.882-33.882v-99.217l151.343 151.343 47.608-47.607-151.343-151.343h99.216c18.713 0 33.882-15.168 33.882-33.882s-15.169-33.882-33.882-33.882h-214.588zM676.894 565.285l-47.607 47.608 151.343 151.343h-99.217c-18.714 0-33.882 15.169-33.882 33.882s15.168 33.882 33.882 33.882h214.588v-214.588c0-18.713-15.168-33.882-33.882-33.882s-33.882 15.169-33.882 33.882v99.216l-151.343-151.343z" />
<glyph unicode="&#xe94d;" glyph-name="scan" d="M96 832c0 17.673 14.327 32 32 32h128c17.673 0 32-14.327 32-32s-14.327-32-32-32h-96v-96c0-17.673-14.327-32-32-32s-32 14.327-32 32v128zM736 832c0 17.673 14.327 32 32 32h128c17.673 0 32-14.327 32-32v-128c0-17.673-14.327-32-32-32s-32 14.327-32 32v96h-96c-17.673 0-32 14.327-32 32zM53.333 448c0 17.673 14.327 32 32 32h853.333c17.673 0 32-14.327 32-32s-14.327-32-32-32h-853.333c-17.673 0-32 14.327-32 32zM128 224c17.673 0 32-14.327 32-32v-96h96c17.673 0 32-14.327 32-32s-14.327-32-32-32h-128c-17.673 0-32 14.327-32 32v128c0 17.673 14.327 32 32 32zM896 224c17.673 0 32-14.327 32-32v-128c0-17.673-14.327-32-32-32h-128c-17.673 0-32 14.327-32 32s14.327 32 32 32h96v96c0 17.673 14.327 32 32 32z" />
<glyph unicode="&#xe94e;" glyph-name="search" d="M235.517 724.483c62.012 62.012 146.118 96.85 233.817 96.85 87.697 0 171.806-34.838 233.818-96.85s96.849-146.118 96.849-233.817c0-43.422-8.555-86.421-25.169-126.541-12.523-30.229-29.436-58.377-50.15-83.55l151.279-151.283c12.497-12.497 12.497-32.755 0-45.252s-32.755-12.497-45.252 0l-151.283 151.279c-25.173-20.715-53.321-37.628-83.55-50.15-40.119-16.614-83.119-25.169-126.541-25.169-43.424 0-86.422 8.555-126.541 25.169-40.118 16.619-76.57 40.977-107.276 71.68-30.705 30.707-55.062 67.157-71.68 107.277s-25.17 83.119-25.17 126.541c0 87.698 34.838 171.805 96.85 233.817zM469.333 757.333c-70.724 0-138.552-28.095-188.562-78.105s-78.105-117.838-78.105-188.562c0-35.021 6.897-69.696 20.299-102.050s33.044-61.751 57.806-86.511c24.762-24.764 54.159-44.407 86.513-57.805 32.353-13.402 67.028-20.301 102.049-20.301s69.696 6.899 102.050 20.301c32.354 13.397 61.751 33.041 86.511 57.805 24.764 24.759 44.407 54.157 57.805 86.511 13.402 32.354 20.301 67.029 20.301 102.050 0 70.724-28.096 138.552-78.106 188.562s-117.837 78.105-188.561 78.105z" />
<glyph unicode="&#xe94f;" glyph-name="send" d="M911.599 761.486c3.823 17.794-13.623 32.798-30.639 26.305l-738.181-281.794c-8.884-3.392-14.761-11.908-14.779-21.419s5.824-18.048 14.696-21.474l207.369-80.090v-252.254c0-10.641 7.307-19.891 17.659-22.349 10.284-2.449 21.008 2.445 25.829 12.011l85.764 170.189 209.301-155.328c12.732-9.446 31.031-3.439 35.665 11.746 195.413 640.71 186.965 612.847 187.315 614.456zM729.382 680.748l-359.601-256.096-154.723 59.755 514.324 196.341zM396.010 386.927l313.447 223.227c-269.717-284.535-255.629-269.559-256.806-271.142-1.749-2.351 3.038 6.81-56.641-111.62v159.535zM689.839 191.595l-184.235 136.725 333.12 351.418-148.885-488.143z" />
<glyph unicode="&#xe950;" glyph-name="settings" d="M398.863 561.137c30.005 30.006 70.701 46.863 113.137 46.863s83.132-16.857 113.139-46.863c30.003-30.005 46.861-70.701 46.861-113.137s-16.858-83.132-46.861-113.139c-30.007-30.003-70.703-46.861-113.139-46.861s-83.132 16.858-113.137 46.861c-30.006 30.007-46.863 70.703-46.863 113.139s16.857 83.132 46.863 113.137zM512 352c25.459 0 49.877 10.116 67.883 28.117 18.001 18.005 28.117 42.423 28.117 67.883s-10.116 49.877-28.117 67.883c-18.005 18.003-42.423 28.117-67.883 28.117s-49.877-10.114-67.883-28.117c-18.003-18.005-28.117-42.423-28.117-67.883s10.114-49.877 28.117-67.883c18.005-18.001 42.423-28.117 67.883-28.117zM437.577 882.812c3.699 14.057 16.41 23.855 30.946 23.855h83.371c14.541 0 27.251-9.802 30.95-23.865l22.532-85.716 82.675-33.993 59.157 50.565c12.698 10.854 31.607 10.115 43.418-1.697l85.333-85.333c11.763-11.764 12.553-30.579 1.813-43.285l-50.351-59.567 33.216-80.238 85.918-21.861c14.182-3.605 24.111-16.375 24.111-31.010v-84.395c0-14.575-9.847-27.307-23.953-30.972l-86.379-22.447-33.284-80.384 50.688-59.772c10.773-12.706 10.001-31.548-1.779-43.324l-85.333-85.333c-12.019-12.023-31.343-12.544-43.994-1.195l-2.372 2.121c-1.536 1.37-3.755 3.349-6.481 5.769-5.457 4.843-12.915 11.43-20.949 18.423-9.903 8.623-20.058 17.323-28.326 24.145l-80.981-33.545-21.833-86.276c-3.593-14.199-16.371-24.149-31.023-24.149h-85.333c-14.656 0-27.439 9.954-31.027 24.166l-21.781 86.259-78.66 32.358-61.646-50.253c-12.725-10.377-31.237-9.434-42.846 2.176l-85.333 85.333c-11.995 11.994-12.546 31.262-1.256 43.925l51.223 57.438-33.671 79.876-87.424 23.846c-13.921 3.797-23.578 16.444-23.578 30.874v85.333c0 14.869 10.244 27.78 24.725 31.164l85.116 19.869 32.716 80.486-50.063 61.64c-10.336 12.727-9.382 31.208 2.212 42.801l85.333 85.333c11.985 11.985 31.235 12.546 43.898 1.28l57.615-51.258 79.735 33.612 22.957 87.217zM493.188 842.667l-20.685-78.588c-2.526-9.601-9.37-17.485-18.517-21.341l-112.852-47.573c-11.369-4.793-24.482-2.622-33.7 5.579l-50.151 44.618-43.585-43.585 43.803-53.933c7.359-9.061 9.201-21.41 4.805-32.224l-46.080-113.364c-3.912-9.626-12.253-16.751-22.37-19.115l-76.523-17.865v-35.503l78.865-21.513c9.481-2.59 17.248-9.387 21.065-18.445l47.573-112.853c4.798-11.379 2.617-24.508-5.604-33.728l-44.568-49.975 43.523-43.524 54.010 44.028c9.101 7.42 21.534 9.259 32.393 4.791l111.188-45.739c9.378-3.857 16.371-11.93 18.854-21.76l19.627-77.722h35.494l19.661 77.696c2.479 9.796 9.442 17.847 18.778 21.713l113.109 46.848c10.206 4.228 21.871 2.893 30.857-3.533 10.944-7.821 30.818-24.806 46.703-38.635 2.684-2.338 5.308-4.629 7.812-6.831l43.191 43.191-44.254 52.186c-7.757 9.148-9.749 21.858-5.163 32.939l46.848 113.152c3.84 9.271 11.806 16.205 21.521 18.731l77.85 20.228v34.769l-77.35 19.682c-9.783 2.487-17.818 9.446-21.679 18.769l-46.805 113.068c-4.578 11.061-2.598 23.754 5.129 32.897l43.934 51.978-43.597 43.599-51.533-44.047c-9.126-7.802-21.854-9.838-32.96-5.271l-115.499 47.488c-9.276 3.815-16.23 11.759-18.782 21.461l-20.305 77.255h-34.031z" />
<glyph unicode="&#xe951;" glyph-name="share" d="M768 906.667c-42.436 0-83.132-16.857-113.139-46.863-30.003-30.006-46.861-70.703-46.861-113.137 0-18.062 3.055-35.809 8.875-52.551l-242.439-138.537c-1.718 1.891-3.484 3.744-5.299 5.559-30.006 30.006-70.703 46.863-113.137 46.863s-83.131-16.857-113.137-46.863c-30.006-30.005-46.863-70.701-46.863-113.137s16.857-83.132 46.863-113.139c30.006-30.003 70.703-46.861 113.137-46.861s83.131 16.858 113.137 46.861c1.814 1.818 3.579 3.669 5.296 5.559l242.442-138.539c-5.82-16.742-8.875-34.487-8.875-52.548 0-42.436 16.858-83.132 46.861-113.139 30.007-30.003 70.703-46.861 113.139-46.861s83.132 16.858 113.139 46.861c30.003 30.007 46.861 70.703 46.861 113.139s-16.858 83.132-46.861 113.139c-30.007 30.003-70.703 46.861-113.139 46.861s-83.132-16.858-113.139-46.861c-1.813-1.818-3.58-3.669-5.295-5.559l-242.442 138.539c5.822 16.738 8.876 34.487 8.876 52.548s-3.053 35.806-8.874 52.544l242.444 138.54c1.715-1.889 3.482-3.741 5.291-5.555 30.007-30.006 70.703-46.863 113.139-46.863s83.132 16.857 113.139 46.863c30.003 30.006 46.861 70.703 46.861 113.137s-16.858 83.131-46.861 113.137c-30.007 30.006-70.703 46.863-113.139 46.863zM700.117 814.549c18.005 18.004 42.423 28.118 67.883 28.118s49.877-10.114 67.883-28.118c18.001-18.004 28.117-42.421 28.117-67.882s-10.116-49.879-28.117-67.882c-18.005-18.004-42.423-28.118-67.883-28.118s-49.877 10.114-67.883 28.118c-18.001 18.004-28.117 42.421-28.117 67.882s10.116 49.879 28.117 67.882zM323.882 380.117c-18.004-18.001-42.421-28.117-67.882-28.117s-49.879 10.116-67.882 28.117c-18.004 18.005-28.118 42.423-28.118 67.883s10.114 49.877 28.118 67.883c18.004 18.003 42.421 28.117 67.882 28.117s49.879-10.114 67.882-28.117c18.004-18.005 28.118-42.423 28.118-67.883s-10.114-49.877-28.118-67.883zM700.117 217.216c18.005 18.001 42.423 28.117 67.883 28.117s49.877-10.116 67.883-28.117c18.001-18.005 28.117-42.423 28.117-67.883s-10.116-49.877-28.117-67.883c-18.005-18.001-42.423-28.117-67.883-28.117s-49.877 10.116-67.883 28.117c-18.001 18.005-28.117 42.423-28.117 67.883s10.116 49.877 28.117 67.883z" />
<glyph unicode="&#xe952;" glyph-name="shopping" d="M429.035 829.634c22.003 22.004 51.849 34.366 82.965 34.366 31.121 0 60.962-12.362 82.97-34.366 22.003-22.004 34.364-51.848 34.364-82.967 0-17.673-14.327-32-32-32s-32 14.327-32 32c0 14.145-5.619 27.71-15.62 37.712s-23.569 15.621-37.713 15.621c-14.144 0-27.712-5.619-37.713-15.621s-15.62-23.567-15.62-37.712c0-17.673-14.327-32-32-32s-32 14.327-32 32c0 31.119 12.362 60.963 34.368 82.967zM286.53 586.667c-12.746 0.008-25.073-4.549-34.749-12.845s-16.061-19.784-17.998-32.381l-59.093-384c0 0 0 0 0 0-1.168-7.599-0.68-15.364 1.432-22.758s5.799-14.242 10.807-20.079c5.007-5.837 11.218-10.522 18.205-13.73 6.988-3.213 14.586-4.873 22.276-4.873h569.151c7.684 0.009 15.275 1.673 22.259 4.89 6.98 3.213 13.184 7.898 18.185 13.734 5.001 5.833 8.683 12.681 10.79 20.070 2.112 7.39 2.598 15.147 1.429 22.741 0 0.004 0 0 0 0l-59.093 384.001c-0.064 0.429-0.119 0.859-0.171 1.289-2.163 12.088-8.435 23.075-17.775 31.087-9.668 8.296-21.99 12.856-34.731 12.854h-450.925zM853.641 549.541l58.842-382.368c2.569-16.713 1.498-33.783-3.145-50.044-4.638-16.256-12.74-31.322-23.744-44.16-11.004-12.834-24.649-23.142-40.009-30.212-15.356-7.074-32.064-10.743-48.969-10.756h-569.199c-0.001 0 0.001 0 0 0-16.916 0-33.637 3.657-49.007 10.718-15.372 7.066-29.035 17.37-40.052 30.208s-19.127 27.908-23.774 44.177c-4.647 16.265-5.722 33.344-3.151 50.065l59.093 384c0-0.001 0 0.001 0 0 4.262 27.713 18.31 52.987 39.596 71.239s48.407 28.277 76.447 28.26h450.877c28.032 0.003 55.138-10.029 76.412-28.279s35.311-43.515 39.573-71.22c0.085-0.542 0.154-1.085 0.209-1.627z" />
<glyph unicode="&#xe953;" glyph-name="show" d="M429.035 530.965c22.003 22.006 51.849 34.368 82.965 34.368s60.962-12.362 82.965-34.368c22.007-22.003 34.368-51.849 34.368-82.965s-12.361-60.962-34.368-82.965c-22.003-22.007-51.849-34.368-82.965-34.368s-60.962 12.361-82.965 34.368c-22.006 22.003-34.368 51.849-34.368 82.965s12.362 60.962 34.368 82.965zM512 501.333c-14.144 0-27.712-5.619-37.713-15.62s-15.62-23.569-15.62-37.713c0-14.144 5.619-27.712 15.62-37.713s23.569-15.62 37.713-15.62c14.144 0 27.712 5.619 37.713 15.62s15.62 23.569 15.62 37.713c0 14.144-5.619 27.712-15.62 37.713s-23.569 15.62-37.713 15.62zM167.616 445.999c37.205-54.336 86.077-107.366 141.936-147.972 62.452-45.397 131.843-74.027 202.448-74.027s139.998 28.629 202.449 74.027c55.859 40.606 104.73 93.636 141.935 147.972-95.701 116.975-198.46 226.001-344.384 226.001s-248.683-109.027-344.384-226.001zM103.121 468.126c96.214 118.938 220.303 267.874 408.879 267.874 188.578 0 312.666-148.936 408.879-267.874 8.623-10.658 9.498-25.621 2.176-37.214-42.159-66.756-101.171-133.909-170.974-184.653-69.743-50.697-152.051-86.259-240.081-86.259s-170.34 35.563-240.080 86.259c-69.804 50.743-128.815 117.897-170.976 184.653-7.32 11.593-6.444 26.556 2.177 37.214z" />
<glyph unicode="&#xe954;" glyph-name="sort" d="M181.333 213.333c-17.673 0-32 14.327-32 32s14.327 32 32 32h165.333c17.673 0 32-14.327 32-32s-14.327-32-32-32h-165.333zM181.332 416c-17.673 0-31.999 14.327-31.999 32s14.327 32 31.999 32h413.129c17.673 0 32-14.327 32-32s-14.327-32-32-32h-413.129zM181.333 618.668c-17.673 0-32 14.327-32 32s14.327 32 32 32h661.334c17.673 0 32-14.327 32-32s-14.327-32-32-32h-661.334z" />
<glyph unicode="&#xe955;" glyph-name="star" d="M935.915 565.066c-3.691 11.373-10.645 21.41-19.998 28.859s-20.689 11.983-32.597 13.036l-226.202 19.5-88.666 210.849c-4.617 11.063-12.403 20.514-22.379 27.161s-21.696 10.194-33.685 10.194c-11.985 0-23.706-3.547-33.685-10.194-9.975-6.647-17.762-16.098-22.379-27.161l-88.398-210.849-226.465-19.615c-11.958-1.005-23.353-5.518-32.756-12.973s-16.396-17.521-20.102-28.934c-3.706-11.414-3.959-23.667-0.728-35.225s9.802-21.901 18.889-29.739l171.81-150.14-51.494-222.959c-2.723-11.669-1.946-23.881 2.234-35.11 4.18-11.226 11.577-20.975 21.266-28.023s21.241-11.081 33.211-11.601c11.97-0.516 23.827 2.505 34.089 8.691l194.244 118.067 194.662-118.067c10.261-6.187 22.118-9.207 34.086-8.691 11.972 0.521 23.522 4.553 33.212 11.601s17.088 16.798 21.265 28.023c4.181 11.23 4.958 23.441 2.236 35.11l-51.456 223.189 171.772 149.909c9.088 7.863 15.646 18.24 18.85 29.82 3.204 11.582 2.914 23.852-0.836 35.27zM877.948 546.022l-171.772-149.909c-8.358-7.275-14.579-16.687-17.988-27.23s-3.878-21.815-1.361-32.606l51.61-223.343-194.509 118.071c-9.493 5.777-20.39 8.836-31.501 8.836s-22.007-3.059-31.497-8.836l-194.243-118.071 51.265 223.189c2.519 10.79 2.049 22.063-1.36 32.606s-9.628 19.959-17.988 27.23l-171.848 149.834c-0.014 0.114-0.014 0.229 0 0.343l226.388 19.576c11.053 0.975 21.63 4.948 30.59 11.492s15.964 15.41 20.256 25.643l88.399 210.583 88.363-210.583c4.292-10.232 11.294-19.098 20.254-25.643 8.964-6.544 19.541-10.518 30.592-11.492l226.428-19.576c0 0 0-0.229 0-0.267l-0.077 0.152z" />
<glyph unicode="&#xe956;" glyph-name="tick" d="M398.287 223.893l-204.799 204.8c-12.598 12.595-12.598 33.020 0 45.619 12.598 12.595 33.022 12.595 45.62 0l159.18-159.181 368.246 368.246c12.599 12.597 33.024 12.597 45.619 0 12.599-12.597 12.599-33.022 0-45.62l-413.865-413.865z" />
<glyph unicode="&#xe957;" glyph-name="tooltip" d="M53.333 448c0 253.321 205.346 458.667 458.667 458.667s458.667-205.346 458.667-458.667c0-253.321-205.346-458.667-458.667-458.667s-458.667 205.346-458.667 458.667zM512 842.667c-217.975 0-394.667-176.692-394.667-394.667s176.692-394.667 394.667-394.667c217.975 0 394.667 176.691 394.667 394.667s-176.691 394.667-394.667 394.667zM533.952 663.721c13.077-11.888 14.042-32.127 2.155-45.204l-0.427-0.469c-11.891-13.077-32.128-14.040-45.205-2.152s-14.042 32.126-2.155 45.204l0.427 0.469c11.891 13.077 32.128 14.040 45.205 2.152zM512 501.333c17.673 0 32-14.327 32-32v-213.333c0-17.673-14.327-32-32-32s-32 14.327-32 32v213.333c0 17.673 14.327 32 32 32z" />
<glyph unicode="&#xe958;" glyph-name="triangle" d="M341.333 533.333l160-160 160 160h-320z" />
<glyph unicode="&#xe959;" glyph-name="upload" d="M534.626 811.961l149.333-149.333c12.497-12.497 12.497-32.758 0-45.255s-32.755-12.497-45.252 0l-94.707 94.706v-434.745c0-17.673-14.327-32-32-32s-32 14.327-32 32v434.745l-94.706-94.706c-12.497-12.497-32.758-12.497-45.255 0s-12.497 32.758 0 45.255l149.335 149.333c3.068 3.068 6.605 5.383 10.377 6.944 3.772 1.565 7.91 2.428 12.25 2.428s8.478-0.864 12.25-2.428c3.772-1.562 7.309-3.876 10.377-6.944zM224 106.667c0 17.673 14.327 32 32 32h512c17.673 0 32-14.327 32-32s-14.327-32-32-32h-512c-17.673 0-32 14.327-32 32z" />
<glyph unicode="&#xe95a;" glyph-name="videos" d="M410.948 264.205l282.428 183.795-282.428 183.794v-367.589zM166.522 106.667c-22.687 0-41.89 7.966-57.609 23.893s-23.579 35.388-23.579 58.377v518.126c0 22.989 7.86 42.448 23.579 58.377s34.923 23.893 57.609 23.893h690.959c22.686 0 41.886-7.965 57.609-23.893 15.718-15.929 23.578-35.388 23.578-58.377v-518.126c0-22.989-7.859-42.449-23.578-58.377-15.723-15.927-34.923-23.893-57.609-23.893h-690.959zM166.522 174.933h690.959c3.452 0 6.622 1.459 9.502 4.373 2.876 2.918 4.318 6.131 4.318 9.63v518.126c0 3.501-1.442 6.711-4.318 9.629-2.88 2.917-6.050 4.376-9.502 4.376h-690.959c-3.456 0-6.623-1.459-9.502-4.376s-4.318-6.128-4.318-9.629v-518.126c0-3.499 1.439-6.711 4.318-9.63 2.88-2.914 6.047-4.373 9.502-4.373z" />
<glyph unicode="&#xe95b;" glyph-name="view-360" d="M512.657 348.049c-38.212 0-65.946 30.596-65.946 72.751 0 92.975 76.301 124.565 79.548 125.865 9.395 3.757 20.062-0.813 23.821-10.21 3.763-9.398-0.811-20.064-10.21-23.823-1.391-0.576-23.437-10.014-39.573-33.818 40.043 7.898 78.716-23.932 78.306-64.815 0.004-36.365-29.581-65.95-65.946-65.95zM484.275 435.605c-10.428-65.954 56.026-62.208 57.677-21.606 0 16.149-13.141 29.291-29.295 29.291-8.030 0-19.58-3.878-28.382-7.684zM675.947 348.053c-36.975 0-65.946 43.908-65.946 99.964 2.155 132.507 129.745 132.491 131.891-0.004 0-56.051-28.966-99.959-65.946-99.959zM675.947 511.322c-11.942 0-29.291-24.661-29.291-63.305 0-38.647 17.348-63.313 29.291-63.313 11.947 0 29.295 24.666 29.295 63.313 0 38.643-17.348 63.305-29.295 63.305zM889.933 448c59.127 119.369 74.889 282.717-12.553 364.757-52.501 52.556-133.978 72.509-229.419 56.18-9.975-1.706-16.683-11.179-14.976-21.156 1.707-9.976 11.183-16.684 21.158-14.974 83.383 14.264 153.451-2.056 197.308-45.963 68.279-63.833 60.983-194.846 16.939-296.694-89.276 165.677-280.853 328.96-453.4 370.699-112.135 29.044-206.965 11.967-267.014-48.077-52.641-52.569-72.625-134.080-56.277-229.521 1.71-9.979 11.184-16.681 21.161-14.971s16.679 11.184 14.97 21.161c-14.283 83.373 2.071 153.476 46.058 197.402 50.501 50.496 132.863 64.176 231.913 38.523 171.125-41.219 363.023-211.042 443.466-377.365-65.997-134.558-202.061-270.592-336.597-336.606-67.571 33.865-134.128 82.483-194.137 142.485-27.874 27.887-53.801 57.822-77.061 88.977-6.057 8.111-17.541 9.775-25.653 3.716-8.111-6.054-9.776-17.54-3.719-25.651 24.308-32.555 51.395-63.829 80.512-92.958 55.139-55.138 115.751-101.146 177.917-135.697-21.649-8.819-43.285-16.081-64.727-21.636-201.148-55.185-325.626 69.325-270.481 270.464 26.518 102.494 91.585 209.401 183.214 301.025 17.725 17.734 36.292 34.664 55.479 50.628l-5.567-51.739c-1.083-10.064 6.198-19.102 16.262-20.185 0.666-0.072 1.328-0.107 1.983-0.107 9.242 0.002 17.189 6.971 18.2 16.369l10.204 94.843c0.52 4.835-0.902 9.679-3.954 13.465-3.051 3.785-7.483 6.203-12.319 6.721l-94.839 10.151c-10.059 1.075-19.098-6.208-20.175-16.274s6.208-19.098 16.274-20.175l49.932-5.344c-19.851-16.546-39.061-34.084-57.403-52.436-150.47-148.951-293.023-421.638-144.648-584.803 91.347-92.898 252.614-66.829 364.707-12.506 62.336-29.269 133.457-49.515 198.933-49.395 67.721 0.004 124.83 20.971 165.764 61.905 87.484 82.108 71.671 245.389 12.565 364.762zM851.452 109.158c-50.505-50.496-132.86-64.179-231.915-38.524-21.444 5.551-43.076 12.817-64.73 21.636 123.849 67.806 245.786 189.713 313.583 313.579 44.062-101.854 51.315-232.909-16.939-296.691zM348.703 348.045c-36.931 0-58.97 37.777-61.361 42.086-4.911 8.849-1.721 20.006 7.129 24.917 8.83 4.902 19.962 1.737 24.889-7.078 3.442-6.059 16.177-23.27 29.342-23.27 12.777 0 23.172 10.402 23.172 23.185 0 22.805-24.719 46.195-33.379 52.595-3.929 2.901-6.536 7.249-7.244 12.083-0.708 4.83 0.541 9.745 3.472 13.653l18.825 25.101h-44.982c-24.289 0.9-24.271 35.759 0 36.652h81.635c6.943 0 13.289-3.922 16.393-10.131 3.104-6.211 2.434-13.639-1.731-19.194l-30.691-40.917c14.272-14.221 34.356-39.603 34.356-69.845 0-32.99-26.838-59.836-59.825-59.836z" />
<glyph unicode="&#xe95c;" glyph-name="wallet" d="M705.668 835.974c17.63-3.525 34.219-11.055 48.478-22.009s25.809-25.039 33.762-41.167c7.949-16.128 12.087-33.868 12.092-51.849v-27.616h10.667c31.117 0 60.962-12.362 82.965-34.366 22.007-22.004 34.368-51.848 34.368-82.967v-384c0-31.117-12.361-60.962-34.368-82.965-22.003-22.007-51.849-34.368-82.965-34.368h-597.333c-31.119 0-60.963 12.361-82.967 34.368-22.004 22.003-34.366 51.849-34.366 82.965v384c0 0 0 0.001 0 0.002v19.747c-0.004 25.859 8.534 51.002 24.288 71.508s37.841 35.234 62.828 41.894l469.339 125.143c17.374 4.63 35.58 5.205 53.214 1.68zM736 693.333v27.598c-0.004 8.17-1.886 16.239-5.495 23.568-3.614 7.331-8.866 13.733-15.347 18.712s-14.020 8.402-22.037 10.004c-8.013 1.602-16.286 1.341-24.183-0.762l-296.73-79.119h363.793zM160 576.002c0 0 0-0.001 0-0.002v-384c0-14.144 5.619-27.712 15.621-37.713s23.567-15.62 37.712-15.62h597.333c14.144 0 27.712 5.619 37.713 15.62s15.62 23.569 15.62 37.713v384c0 14.145-5.619 27.71-15.62 37.712s-23.569 15.621-37.713 15.621h-597.333c-14.145 0-27.71-5.619-37.712-15.621s-15.621-23.566-15.621-37.711zM666.287 421.713c10.001 10.001 23.569 15.62 37.713 15.62s27.712-5.619 37.713-15.62c10.001-10.001 15.62-23.569 15.62-37.713s-5.619-27.712-15.62-37.713c-10.001-10.001-23.569-15.62-37.713-15.62s-27.712 5.619-37.713 15.62c-10.001 10.001-15.62 23.569-15.62 37.713s5.619 27.712 15.62 37.713z" />
<glyph unicode="&#xe95d;" glyph-name="warning" d="M465.745 772.725c0-0.002 0.004 0.003 0 0l-343.152-596.793c-0.001-0.004 0.001 0 0 0-20.425-35.558 5.243-79.932 46.239-79.932h686.336c40.969 0 66.667 44.386 46.238 79.932l-343.159 596.809c0 0.001 0-0.001 0 0-20.497 35.631-71.945 35.663-92.501-0.016zM410.286 804.665c45.155 78.405 158.311 78.438 203.436-0.015l343.172-596.825c44.937-78.204-11.537-175.825-101.726-175.825h-686.336c-90.245 0-146.662 97.626-101.729 175.817l343.183 596.849zM512 608.002c17.673 0 32-14.327 32-32v-170.668c0-17.673-14.327-32-32-32s-32 14.327-32 32v170.668c0 17.673 14.327 32 32 32zM533.952 258.389c13.077-11.887 14.042-32.124 2.15-45.201l-0.427-0.469c-11.887-13.077-32.124-14.042-45.201-2.15-13.077 11.887-14.042 32.124-2.15 45.201l0.427 0.469c11.887 13.077 32.124 14.042 45.201 2.15z" />
<glyph unicode="&#xe95e;" glyph-name="website" d="M512 42.667c-55.578 0-108.021 10.654-157.333 31.962-49.313 21.303-92.321 50.308-129.026 87.014s-65.709 79.714-87.014 129.024c-21.306 49.314-31.959 101.76-31.959 157.333 0 56.013 10.653 108.568 31.959 157.662s50.31 91.993 87.014 128.698c36.705 36.704 79.713 65.709 129.026 87.014s101.756 31.959 157.333 31.959c56.013 0 108.565-10.653 157.662-31.959 49.092-21.306 91.989-50.31 128.695-87.014s65.711-79.604 87.014-128.698c21.308-49.094 31.962-101.649 31.962-157.662 0-55.573-10.654-108.019-31.962-157.333-21.303-49.31-50.308-92.318-87.014-129.024s-79.603-65.711-128.695-87.014c-49.097-21.308-101.649-31.962-157.662-31.962zM512 107.571c21.769 28.881 40.094 58.010 54.976 87.386 14.878 29.372 26.991 61.483 36.348 96.329h-182.648c9.9-35.938 22.153-68.595 36.758-97.971s32.794-57.954 54.566-85.743zM429.376 119.305c-16.357 23.467-31.044 50.146-44.063 80.038-13.019 29.897-23.139 60.544-30.36 91.942h-144.74c22.537-44.309 52.759-81.536 90.668-111.676s80.74-50.24 128.495-60.305zM594.624 119.305c47.753 10.065 90.586 30.165 128.495 60.305 37.905 30.14 68.13 67.366 90.667 111.676h-144.742c-8.589-31.671-19.392-62.455-32.41-92.352-13.018-29.892-27.021-56.435-42.010-79.629zM183.383 355.281h158.606c-2.68 15.863-4.622 31.411-5.825 46.647s-1.805 30.592-1.805 46.071c0 15.479 0.602 30.839 1.805 46.071 1.203 15.236 3.145 30.784 5.825 46.648h-158.606c-4.102-14.495-7.248-29.565-9.436-45.21s-3.282-31.479-3.282-47.509c0-16.026 1.094-31.863 3.282-47.509 2.188-15.642 5.333-30.711 9.436-45.21zM405.988 355.281h212.021c2.679 15.863 4.621 31.275 5.828 46.238 1.203 14.959 1.805 30.455 1.805 46.481 0 16.030-0.602 31.522-1.805 46.481-1.207 14.963-3.149 30.374-5.828 46.239h-212.021c-2.68-15.864-4.622-31.276-5.826-46.239-1.203-14.959-1.805-30.451-1.805-46.481 0-16.026 0.602-31.522 1.805-46.481 1.204-14.963 3.146-30.374 5.826-46.238zM682.010 355.281h158.605c4.105 14.498 7.249 29.568 9.438 45.21 2.185 15.646 3.281 31.484 3.281 47.509 0 16.030-1.097 31.863-3.281 47.509-2.189 15.646-5.333 30.716-9.438 45.21h-158.605c2.679-15.864 4.621-31.412 5.824-46.648 1.203-15.232 1.805-30.592 1.805-46.071s-0.602-30.835-1.805-46.071c-1.203-15.236-3.145-30.784-5.824-46.647zM669.043 604.718h144.742c-22.814 44.855-52.83 82.080-90.052 111.674-37.227 29.593-80.26 49.833-129.109 60.718 16.354-24.834 30.903-51.993 43.652-81.478 12.745-29.484 23.002-59.789 30.767-90.914zM420.675 604.718h182.648c-9.903 35.665-22.362 68.527-37.376 98.586s-32.998 58.434-53.948 85.129c-20.954-26.694-38.933-55.070-53.948-85.129-15.019-30.059-27.477-62.921-37.377-98.586zM210.214 604.718h144.74c7.768 31.125 18.025 61.43 30.77 90.914s27.296 56.643 43.652 81.478c-49.123-10.886-92.227-31.194-129.315-60.924s-67.037-66.886-89.847-111.468z" />
</font>
</defs>
</svg>
